Welcome Guest ( Log In | Register )

> Releases Upload / Добавление релизов

Добавить релиз тут / Click here to add release
Рекомендованные обменники / Recommended file shares

> In Snakes I Bathe - Ha Ha Michael Keene Got Addicted To Heroin [ep] (2018), Grindcore (D4)
post Jun 13 2018, 11:29:47
Post #1

Serial Uploader
Group Icon
Group: V.I.P
Posts: 32,712
Releases: 31010
From: Lithuania
On Forums: 10 years 1 week
Thanks: 355608 time(s)
Lithuania


(IMG:https://metalarea.org/images/audiocovers/2018_Jun/acov_tid307080_thumb.jpg)

*Artist: In Snakes I Bathe
*Album: Ha Ha Michael Keene Got Addicted To Heroin [ep]
*Year: 2018
*Genre: Grindcore
*Country: United Kingdom (IMG:https://metalarea.org/forum/style_images/flags/United%20Kingdom.png)
*Format: mp3@CBR320kbps
*Size: 2MB

Tracklist:
01. Ha Ha Michael Keene Got Addicted To Heroin 00:17
02. Ha Ha Michael Keene Got Addicted To Heroin (Instrumental) 00:12
03. I Hate East Ayrshire Council 00:10
******************************
Total playing time: 0:39





Technical info
(IMG:https://metalarea.org/images/spectrogram/2018_Jun/664539c64665400f1df91342b131d236.png)
Input File: 03. I Hate East Ayrshire Council.mp3
Channels : 2
Sample Rate : 44100
Precision : 16-bit
Duration : 00:00:10.03 = 442367 samples = 752.325 CDDA sectors
File Size : 495k
Bit Rate : 395k
Sample Encoding: MPEG audio (layer I, II or III)
Comments :
Title=I Hate East Ayrshire Council
Artist=In Snakes I Bathe
Album=Ha Ha Michael Keene Got Addicted to Heroin
Tracknumber=3
Year=2018



Register


Thanks:
(1) Rosen,
Go to the top of the page
  Insert nick Quick quote
+Quote Post
 
Start new topic
Replies (1 - 1)
post Jun 13 2018, 16:47:58
Post #2

Правь статус, ####!111
**************
Group: Металариец
Posts: 2,051
Releases: 0
From: Odessa
On Forums: 10 years 3 months
Thanks: 755 time(s)
Ukraine


very interesting
Go to the top of the page
  Insert nick Quick quote
+Quote Post

Reply to this topicStart new topic
1 User(s) are reading this topic (1 Guests and 0 Anonymous Users)
0 Members:

 



- Lo-Fi Version Support form
Copyrights and abuse reports form
Time is now: 18th June 2018 - 21:41:47