Welcome Guest ( Log In | Register )

> Releases Upload / Добавление релизов

Добавить релиз тут / Click here to add release
Рекомендованные обменники / Recommended file shares

 
Reply to this topicStart new topic
> Artificial Urinary Sphincter - Arsestralia's Most Cunted (2018), Goregrind
post Jun 13 2018, 11:47:29
Post #1

Serial Uploader
Group Icon
Group: V.I.P
Posts: 32,736
Releases: 31034
From: Lithuania
On Forums: 10 years 2 weeks
Thanks: 355762 time(s)
Lithuania


(IMG:https://metalarea.org/images/audiocovers/2018_Jun/acov_tid307081_thumb.jpg)

*Artist: Artificial Urinary Sphincter
*Album: Arsestralia's Most Cunted
*Year: 2018
*Genre: Goregrind
*Country: Australia (IMG:https://metalarea.org/forum/style_images/flags/Australia.png)
*Format: mp3@CBR320kbps
*Size: 43MB

Tracklist:
01. Puss Filled Nutsack Embolism 01:59
02. Hot 'N Spicy Anal Abscess 01:06
03. Suffocating On Colostomy Bag Jenkem 01:17
04. Blistered And Oozing Cunnilingus Herpes Cold Sores 01:47
05. Original Recipe Atrophy 02:09
06. Give Me Rock Or Give Me Head 03:01
07. Cripple Bitch (GUT Cover) 01:11
08. Drowned In Urine From An Overflowing Urostomy Bag 01:43
09. Carcinogenic Fecal Aerosols 04:12
******************************
Total playing time: 18:25



Technical info
(IMG:https://metalarea.org/images/spectrogram/2018_Jun/750d4ec7ec07350e9d5447f92bd851fc.png)
Input File: 03. Suffocating On Colostomy Bag Jenkem.mp3
Channels : 2
Sample Rate : 44100
Precision : 16-bit
Duration : 00:01:18.06 = 3442490 samples = 5854.57 CDDA sectors
File Size : 3.19M
Bit Rate : 327k
Sample Encoding: MPEG audio (layer I, II or III)
Comments :
Title=Suffocating On Colostomy Bag Jenkem
Artist=A.U.S (Artificial Urinary Sphincter)
Album=ARSESTRALIA'S MOST CUNTED
Tracknumber=3
Year=2018



Register


Go to the top of the page
  Insert nick Quick quote
+Quote Post
post Jun 13 2018, 14:24:50
Post #2

Правь статус, ####!111
**************
Group: Металариец
Posts: 2,086
Releases: 0
From: Odessa
On Forums: 10 years 3 months
Thanks: 776 time(s)
Ukraine


(IMG:style_emoticons/default/21.gif)
Go to the top of the page
  Insert nick Quick quote
+Quote Post
post Jun 13 2018, 14:26:53
Post #3

Правь статус, ####!111
**************
Group: Металариец
Posts: 32,316
Releases: 486
On Forums: 9 years 3 weeks
Thanks: 24730 time(s)
Russian Federation


Goregrind shitty bands fall down like snow in Arctic.

First we had black metal, then this ppl decided to switch on to grind.



Thanks:
Go to the top of the page
  Insert nick Quick quote
+Quote Post
post Jun 13 2018, 14:47:53
Post #4

Правь статус, ####!111
**************
Group: Металариец
Posts: 2,086
Releases: 0
From: Odessa
On Forums: 10 years 3 months
Thanks: 776 time(s)
Ukraine


QUOTE(vosmidesijatye @ Jun 13 2018, 15:26:53) *
Goregrind shitty bands fall down like snow in Arctic.

First we had black metal, then this ppl decided to switch on to grind.

yes, ridiculous. They are fake bands to me.


Thanks:
Go to the top of the page
  Insert nick Quick quote
+Quote Post
post Jun 13 2018, 14:48:48
Post #5

Правь статус, ####!111
**************
Group: Металариец
Posts: 32,316
Releases: 486
On Forums: 9 years 3 weeks
Thanks: 24730 time(s)
Russian Federation


It`s not even bands. Even robot can play better than this clowns.


Thanks:
Go to the top of the page
  Insert nick Quick quote
+Quote Post

Reply to this topicStart new topic
1 User(s) are reading this topic (1 Guests and 0 Anonymous Users)
0 Members:

 



- Lo-Fi Version Support form
Copyrights and abuse reports form
Time is now: 23rd June 2018 - 18:33:22