Welcome Guest ( Log In | Register )

> Releases Upload / Добавление релизов

Добавить релиз тут / Click here to add release
Рекомендованные обменники / Recommended file shares

 
Reply to this topicStart new topic
> Sociasylum - Crossroads (2018), Grindcore
post Jun 13 2018, 12:02:17
Post #1

Serial Uploader
Group Icon
Group: V.I.P
Posts: 32,692
Releases: 30990
From: Lithuania
On Forums: 10 years 1 week
Thanks: 355593 time(s)
Lithuania


(IMG:https://metalarea.org/images/audiocovers/2018_Jun/acov_tid307082_thumb.jpg)

*Artist: Sociasylum
*Album: Crossroads
*Year: 2018
*Genre: Grindcore
*Country: Estonia (IMG:https://metalarea.org/forum/style_images/flags/Estonia.png)
*Format: mp3@CBR320kbps
*Size: 50MB

Tracklist:
01. Cramped
02. Crossroads
03. Extinct
04. Psychosis
05. Hollow
06. Antidote
07. Origin
08. Wet Cloth
09. Projections
10. Stroll
11. Tin Soldier
******************************
Total playing time: 22:35


(IMG:https://metalarea.org/images/youtube.png)

Technical info
(IMG:https://metalarea.org/images/spectrogram/2018_Jun/2029e3840c2c57967dabff733fa6c93c.png)
Input File: 02. Crossroads.mp3
Channels : 2
Sample Rate : 44100
Precision : 16-bit
Duration : 00:02:19.77 = 6163901 samples = 10482.8 CDDA sectors
File Size : 5.68M
Bit Rate : 325k
Sample Encoding: MPEG audio (layer I, II or III)
Comments :
Title=Crossroads
Artist=Sociasylum
Album=Crossroads
Tracknumber=2
Year=2018
Genre=Метал
Discnumber=1



Register


Thanks:
Go to the top of the page
  Insert nick Quick quote
+Quote Post

Reply to this topicStart new topic
1 User(s) are reading this topic (1 Guests and 0 Anonymous Users)
0 Members:

 



- Lo-Fi Version Support form
Copyrights and abuse reports form
Time is now: 18th June 2018 - 08:32:54