Welcome Guest ( Log In | Register )

 
Reply to this topicStart new topic
> Dos Brujos - Fuck Off And Jam! Volume III [ep] (2017), Instrumental Sludge/Doom Metal (D23)
post Jun 13 2018, 12:12:07
Post #1

Serial Uploader
Group Icon
Group: V.I.P
Posts: 33,395
Releases: 31665
From: Lithuania
On Forums: 10 years 6 months
Thanks: 361778 time(s)
Lithuania


(IMG:https://metalarea.org/images/audiocovers/2018_Jun/acov_tid307083_thumb.jpg)

*Artist: Dos Brujos
*Album: Fuck Off And Jam! Volume III [ep]
*Year: 2017
*Genre: Instrumental Sludge/Doom Metal
*Country: Austria (IMG:https://metalarea.org/forum/style_images/flags/Austria.png)
*Format: mp3@CBR320kbps
*Size: 137MB

Tracklist:
01. Kanposantu 10:37
02. Dungeon Of Doom 14:35
03. Catacumba 09:00
04. Mausoleo 08:09
05. The Shroud 19:16
******************************
Total playing time: 1:01:37




(IMG:https://metalarea.org/images/youtube.png)

Technical info
(IMG:https://metalarea.org/images/spectrogram/2018_Jun/199df5512520a0a5ac0d203414d3efb3.png)
Input File: 02. Dungeon Of Doom.mp3
Channels : 2
Sample Rate : 44100
Precision : 16-bit
Duration : 00:14:35.81 = 38623265 samples = 65685.8 CDDA sectors
File Size : 35.3M
Bit Rate : 322k
Sample Encoding: MPEG audio (layer I, II or III)
Comments :
Title=Dungeon Of Doom
Artist=Dos Brujos
Album=Fuck Off and Jam! Volume III
Tracknumber=2
Year=2017



Register


Thanks:
Go to the top of the page
  Insert nick Quick quote
+Quote Post

Reply to this topicStart new topic
1 User(s) are reading this topic (1 Guests and 0 Anonymous Users)
0 Members:

 



- Lo-Fi Version Support form
Copyrights and abuse reports form
Time is now: 14th December 2018 - 07:02:03