Welcome Guest ( Log In | Register )

 
Reply to this topicStart new topic
> Dos Brujos - Yaw Eht [ep] (2017), Instrumental Sludge/Doom Metal (D23)
post Jun 13 2018, 12:24:23
Post #1

Serial Uploader
Group Icon
Group: V.I.P
Posts: 33,121
Releases: 31406
From: Lithuania
On Forums: 10 years 4 months
Thanks: 359169 time(s)
Lithuania


(IMG:https://metalarea.org/images/audiocovers/2018_Jun/acov_tid307084_thumb.jpg)

*Artist: Dos Brujos
*Album: Yaw Eht [ep]
*Year: 2017
*Genre: Instrumental Sludge/Doom Metal
*Country: Austria (IMG:https://metalarea.org/forum/style_images/flags/Austria.png)
*Format: mp3@CBR320kbps
*Size: 104MB

Tracklist:
01. Yaw 27:02
02. Eht 17:49
******************************
Total playing time: 44:51





Technical info
(IMG:https://metalarea.org/images/spectrogram/2018_Jun/0e9e4f4b53b7a04863acfc5982052b25.png)
Input File: 02. Eht.mp3
Channels : 2
Sample Rate : 44100
Precision : 16-bit
Duration : 00:17:49.40 = 47160364 samples = 80204.7 CDDA sectors
File Size : 43.0M
Bit Rate : 321k
Sample Encoding: MPEG audio (layer I, II or III)
Comments :
Title=Eht
Artist=Dos Brujos
Album=Yaw Eht
Tracknumber=2
Year=2017



Register


Thanks:
Go to the top of the page
  Insert nick Quick quote
+Quote Post

Reply to this topicStart new topic
1 User(s) are reading this topic (1 Guests and 0 Anonymous Users)
0 Members:

 



- Lo-Fi Version Support form
Copyrights and abuse reports form
Time is now: 15th October 2018 - 19:56:46