Welcome Guest ( Log In | Register )

 
Reply to this topicStart new topic
> Dos Brujos - Gates Of Guinee [ep] (2017), Instrumental Sludge/Doom Metal (D23)
post Jun 13 2018, 12:34:48
Post #1

Serial Uploader
Group Icon
Group: V.I.P
Posts: 32,939
Releases: 31234
From: Lithuania
On Forums: 10 years 2 months
Thanks: 357630 time(s)
Lithuania


(IMG:https://metalarea.org/images/audiocovers/2018_Jun/acov_tid307085_thumb.jpg)

*Artist: Dos Brujos
*Album: Gates Of Guinee [ep]
*Year: 2017
*Genre: Instrumental Sludge/Doom Metal
*Country: Austria (IMG:https://metalarea.org/forum/style_images/flags/Austria.png)
*Format: mp3@CBR320kbps
*Size: 97MB

Tracklist:
01. Seven Nights 09:50
02. Seven Moons 07:15
03. Seven Gates 05:49
04. Seven Tombs 05:25
05. Papa Legba 14:07
******************************
Total playing time: 42:26





Technical info
(IMG:https://metalarea.org/images/spectrogram/2018_Jun/79c361f7e04590913b7fe1154772b891.png)
Input File: 02. Seven Moons.mp3
Channels : 2
Sample Rate : 44100
Precision : 16-bit
Duration : 00:07:16.00 = 19227512 samples = 32699.9 CDDA sectors
File Size : 17.5M
Bit Rate : 321k
Sample Encoding: MPEG audio (layer I, II or III)
Comments :
Title=Seven Moons
Artist=Dos Brujos
Album=Gates of Guinee
Tracknumber=2
Year=2017



Register


Thanks:
Go to the top of the page
  Insert nick Quick quote
+Quote Post

Reply to this topicStart new topic
1 User(s) are reading this topic (1 Guests and 0 Anonymous Users)
0 Members:

 



- Lo-Fi Version Support form
Copyrights and abuse reports form
Time is now: 19th August 2018 - 10:21:11