Welcome Guest ( Log In | Register )

> Illness - Trvmna [ep] (2015), Black Metal (D10)
post Jun 13 2018, 12:44:01
Post #1

Правь статус, ####!616
**************
Group: Металариец
Posts: 4,426
Releases: 3019
From: 55°35’N 38°08’E
On Forums: 10 years 5 months
Thanks: 57038 time(s)
Unknown


(IMG:http://metalarea.org/images/audiocovers/2018_Jun/acov_tid307086_thumb.jpg)

*Artist: Illness
*Album: Trvmna [ep]
*Year: 2015
*Genre: Black Metal
*Country: International (IMG:http://metalarea.org/forum/style_images/flags/Many.png)
*Format: mp3@CBR320kbps
*Size: 64MB

Tracklist:
1. Intro 02:11
2. Trvmna 03:18
3. Dødskyggen 06:06
4. The Kingdom Comes (Mysticum cover) 04:53
5. Grobowa Mgła 03:42
6. Cranium 03:59
******************************
Total playing time: 24:09




Extended info
International project (Norway/Poland)
CD, Metallic Media/Black Plague Records
+ scans


Technical info
(IMG:http://metalarea.org/images/spectrogram/2018_Jun/b053dd4e7869fc7221f0e29f7ab54d83.png)
Input File: 02 Trvmna.mp3
Channels : 2
Sample Rate : 44100
Precision : 16-bit
Duration : 00:03:19.89 = 8815237 samples = 14991.9 CDDA sectors
File Size : 8.00M
Bit Rate : 320k
Sample Encoding: MPEG audio (layer I, II or III)
Comments :
Title=Trvmna
Artist=Illness
Album=Trvmna
Tracknumber=2
Year=2015
Genre=Black Metal



Register


Go to the top of the page
  Insert nick Quick quote
+Quote Post
 
Start new topic
Replies (1 - 2)
post Jun 15 2018, 08:54:48
Post #2

De Mysteriis Dom Sathanas
**************
Group: Металариец
Posts: 3,347
Releases: 63
From: Москва
On Forums: 10 years 5 months
Thanks: 2866 time(s)
Russian Federation


Никакой особой Норвегии здесь нет, все поляки, тока один переехал в Норвегию...по музыке средненько
Go to the top of the page
  Insert nick Quick quote
+Quote Post
post Jun 15 2018, 08:58:39
Post #3

Правь статус, ####!111
**************
Group: Металариец
Posts: 35,481
Releases: 522
On Forums: 9 years 6 months
Thanks: 27540 time(s)
Russian Federation


ЦИТАТА(RUSP73 @ Jun 15 2018, 11:54:48) *
Никакой особой Норвегии здесь нет, все поляки, тока один переехал в Норвегию...по музыке средненько


Так тру норвежсий бм уже давно исчез, еще в середине 90-х. (IMG:style_emoticons/default/25.gif)
Go to the top of the page
  Insert nick Quick quote
+Quote Post

Reply to this topicStart new topic
1 User(s) are reading this topic (1 Guests and 0 Anonymous Users)
0 Members:

 



- Lo-Fi Version Support form
Copyrights and abuse reports form
Time is now: 14th December 2018 - 06:16:22