Welcome Guest ( Log In | Register )

> Dos Brujos - Babylonia [ep] (2017), Instrumental Sludge/Doom Metal (D23)
post Jun 13 2018, 13:25:14
Post #1

Serial Uploader
Group Icon
Group: V.I.P
Posts: 33,126
Releases: 31411
From: Lithuania
On Forums: 10 years 4 months
Thanks: 359220 time(s)
Lithuania


(IMG:https://metalarea.org/images/audiocovers/2018_Jun/acov_tid307089_thumb.jpg)

*Artist: Dos Brujos
*Album: Babylonia [ep]
*Year: 2017
*Genre: Instrumental Sludge/Doom Metal
*Country: Austria (IMG:https://metalarea.org/forum/style_images/flags/Austria.png)
*Format: mp3@CBR320kbps
*Size: 137MB

Tracklist:
01. The Battle Of Carchemish 10:05
02. Meggido's March 19:54
03. Nabuchodonosor 11:22
04. Ziggurat 13:20
05. The Ishtar Gate 05:00
******************************
Total playing time: 59:41





Technical info
(IMG:https://metalarea.org/images/spectrogram/2018_Jun/79f8339c5659e83cb78b6de0762ba2d0.png)
Input File: 02. Meggido\'s March.mp3
Channels : 2
Sample Rate : 44100
Precision : 16-bit
Duration : 00:19:54.30 = 52668586 samples = 89572.4 CDDA sectors
File Size : 48.0M
Bit Rate : 321k
Sample Encoding: MPEG audio (layer I, II or III)
Comments :
Title=Meggido's March
Artist=Dos Brujos
Album=Babylonia
Tracknumber=2
Year=2017



Register


Thanks:
Go to the top of the page
  Insert nick Quick quote
+Quote Post
 
Start new topic
Replies (1 - 1)
post Jun 14 2018, 11:24:26
Post #2
BAN
Banned till
Oct 23 2018, 12:27:08



11 релизов за 2018 год.
17 релизов за 2017 год.

+ в модерке еще тройка релизов за 2017.

Понятно, что это любительская джем банда, но куда столько валить? Конвеер шлака получается как ТанкГовноцид и Зарах Бал Тарах или как недавние горграйнд герои. Вот когда всего в меру как у Electric Moon - получается круто, а не наспех испеченные потоки котяшей.

Зашел на их БК - с конца 2016 по н.в. ажник 37 релизов (IMG:style_emoticons/default/25.gif)
Go to the top of the page
  Insert nick Quick quote
+Quote Post

Reply to this topicStart new topic
1 User(s) are reading this topic (1 Guests and 0 Anonymous Users)
0 Members:

 



- Lo-Fi Version Support form
Copyrights and abuse reports form
Time is now: 18th October 2018 - 09:54:18