Welcome Guest ( Log In | Register )

> Forum rules / Правила раздела

Here go releases which can't go to New releases forums due lack of information, stolen links or incorrect data and just founded in other sites links with minimum info. Reissue of this releases through Add release form with added/corrected data, info and own links highly welcomed.

Сюда уходят релизы, не пропущенные в основные релизные форумы по причинам отсутствия, недостаточности или неверности/некорректности сопровождающей информации, содержащие ссылки, указывающие на файлы, залитые не автором темы, а так же просто найденные где-то ссылки с минимумом информации. Переоформление тем отсюда через форму Добавления релиза с перезаливкой ссылок крайне приветствуется.

> Utumno - Live In Sweden 1991 [live] (2014), Death Metal (D7)
post Jun 13 2018, 13:40:46
Post #1

Два Литра
**
Group: Завсегдатай
Posts: 141
Releases: 91
From: Barcelona, Spain
On Forums: 8 years 7 months
Thanks: 1495 time(s)
Spain


(IMG:https://metalarea.org/images/audiocovers/2018_Jun/acov_tid307090_thumb.jpg)

*Artist: Utumno
*Album: Live In Sweden 1991 [live]
*Year: 2014
*Genre: Death Metal
*Country: Sweden (IMG:https://metalarea.org/forum/style_images/flags/Sweden.png)
*Format: mp3@CBR320kbps
*Size: 38MB

Tracklist:
1. The Light of Day
2. Saviour Reborn
3. Countess Bathory (Venom cover)
4. In Misery I Dwell
******************************
Total playing time: 16:10


 ! 

fix download link
 


Extended info
Vinyl RIP Mp3@320Kbps, Nagaoka MP-100 cartridge.


Technical info
(IMG:https://metalarea.org/images/spectrogram/2018_Jun/72e92a9506bea97e244b52ebb4c841e6.png)
Input File: 03 - Utumno - Countess Bathory (Venom Cover).mp3
Channels : 2
Sample Rate : 44100
Precision : 16-bit
Duration : 00:03:08.58 = 8316378 samples = 14143.5 CDDA sectors
File Size : 7.54M
Bit Rate : 320k
Sample Encoding: MPEG audio (layer I, II or III)
Comments :
Title=Countess Bathory (Venom Cover)
Artist=Utumno
Album=Live in Sweden 1991
Tracknumber=3
Year=2014
Genre=22



Register


This post has been edited by Borderline1991: Jun 13 2018, 17:20:08
Go to the top of the page
  Insert nick Quick quote
+Quote Post
 
Start new topic
Replies (1 - 1)
post Jun 14 2018, 08:17:40
Post #2

Литр
*
Group: Подсевший
Posts: 92
Releases: 0
On Forums: 8 months 2 weeks
Thanks: 21 time(s)
Unknown


re up please....
Go to the top of the page
  Insert nick Quick quote
+Quote Post

Reply to this topicStart new topic
2 User(s) are reading this topic (2 Guests and 0 Anonymous Users)
0 Members:

 



- Lo-Fi Version Support form
Copyrights and abuse reports form
Time is now: 18th June 2018 - 04:53:32