Welcome Guest ( Log In | Register )

> Releases Upload / Добавление релизов

Добавить релиз тут / Click here to add release
Рекомендованные обменники / Recommended file shares

> Kshatriya - Il Viaggio Dell'Eroe (2017), Black Metal
post Jun 13 2018, 16:14:12
Post #1

Правь статус, ####!616
**************
Group: Металариец
Posts: 4,398
Releases: 3004
From: 55°35’N 38°08’E
On Forums: 9 years 11 months
Thanks: 55857 time(s)
Unknown


(IMG:http://metalarea.org/images/audiocovers/2018_Jun/acov_tid307091_thumb.jpg)

*Artist: Kshatriya
*Album: Il Viaggio Dell'Eroe
*Year: 2017
*Genre: Black Metal
*Country: Italy (IMG:http://metalarea.org/forum/style_images/flags/Italy.png)
*Format: mp3@CBR320kbps
*Size: 128MB

Tracklist:
1.Apertura 05:36
2.Ritorno a Malkhut 06:12
3.La Dimora di Maharaj 08:32
4.Conquista dell'Arma 05:44
5.Tra le Stanze del Castello 08:31
6.Le Rovine di Ahamkara 05:44
7.Evocazione, Lotta e Sconfitta 12:31
8.Conclusione 02:32
******************************
Total playing time: 55:22




Technical info
(IMG:http://metalarea.org/images/spectrogram/2018_Jun/6f729c0b0f30af44dee0fce891e05932.png)
Input File: 02 Ritorno a Malkhut.mp3
Channels : 2
Sample Rate : 44100
Precision : 16-bit
Duration : 00:06:12.94 = 16446478 samples = 27970.2 CDDA sectors
File Size : 15.1M
Bit Rate : 323k
Sample Encoding: MPEG audio (layer I, II or III)
Comments :
Title=Ritorno a Malkhut
Artist=KSHATRIYA
Album=Il Viaggio dell'Eroe
Tracknumber=2
Year=2017
Genre=Black Metal



Register


Go to the top of the page
  Insert nick Quick quote
+Quote Post
 
Start new topic
Replies (1 - 1)
post Jun 13 2018, 18:41:09
Post #2

Правь статус, ####!111
**************
Group: Металариец
Posts: 2,059
Releases: 0
From: Odessa
On Forums: 10 years 3 months
Thanks: 765 time(s)
Ukraine


the opener is a joke!
Go to the top of the page
  Insert nick Quick quote
+Quote Post

Reply to this topicStart new topic
2 User(s) are reading this topic (2 Guests and 0 Anonymous Users)
0 Members:

 



- Lo-Fi Version Support form
Copyrights and abuse reports form
Time is now: 21st June 2018 - 07:39:15