Welcome Guest ( Log In | Register )

> Releases Upload / Добавление релизов

Добавить релиз тут / Click here to add release
Рекомендованные обменники / Recommended file shares

 
Reply to this topicStart new topic
> 摩天楼オペラ - Invisible Chaos [single] (2018), Symphonic Power Metal
post Jun 13 2018, 16:35:05
Post #1

Маньяк
**********
Group: Металариец
Posts: 1,162
Releases: 977
From: Одесса
On Forums: 10 years 2 weeks
Thanks: 7600 time(s)
Ukraine


(IMG:http://metalarea.org/images/audiocovers/2018_Jun/acov_tid307092_thumb.jpg)

*Artist: 摩天楼オペラ
*Album: Invisible Chaos [single]
*Year: 2018
*Genre: Symphonic Power Metal
*Country: Japan (IMG:http://metalarea.org/forum/style_images/flags/Japan.png)
*Format: mp3@CBR320kbps
*Size: 27MB

Tracklist:
1. Invisible Chaos
2. 孤独を知るには一秒も長すぎる
3. It's You
******************************
Total playing time: 11:25

(IMG:http://metalarea.org/images/youtube.png)

Extended info
Line - up:

Yo - Bass (ex-Kamijo (live), ex-Versailles (live), ex-Endless Vanity, ex-Grave Seed, ex-S.D.I, ex-シリウス (live))
Ayame - Keyboards (ex-Outburn, ex-Ry:dia)
Sono - Vocals (ex-King Back, ex-Gride, ex-Jeniva, ex-Renge)
JaY - Guitars (ex-Light Bringer, ex-All Images Blazing)

(IMG:https://www.metal-archives.com/images/3/5/4/0/3540426379_photo.jpg?5147)


Technical info
(IMG:http://metalarea.org/images/spectrogram/2018_Jun/155c5c417d159365749c44ba1a9812a2.png)
Input File: 01 Invisible Chaos.mp3
Channels : 2
Sample Rate : 48000
Precision : 16-bit
Duration : 00:03:58.49 = 11447568 samples ~ 17886.8 CDDA sectors
File Size : 9.54M
Bit Rate : 320k
Sample Encoding: MPEG audio (layer I, II or III)
Comments :
Title=Invisible Chaos
Artist=摩天楼オペラ
Album=Invisible Chaos (Single)
Tracknumber=1
Genre=Symphonic Power Metal



Register


Thanks:
Go to the top of the page
  Insert nick Quick quote
+Quote Post

Reply to this topicStart new topic
1 User(s) are reading this topic (1 Guests and 0 Anonymous Users)
0 Members:

 



- Lo-Fi Version Support form
Copyrights and abuse reports form
Time is now: 21st June 2018 - 07:35:33