Welcome Guest ( Log In | Register )

> Releases Upload / Добавление релизов

Добавить релиз тут / Click here to add release
Рекомендованные обменники / Recommended file shares

 
Reply to this topicStart new topic
> Perditus - Habgier Und Missgunst [ep] (2018), Instrumental Black Metal
post Jun 13 2018, 17:07:25
Post #1

Маньяк
**********
Group: Металариец
Posts: 1,162
Releases: 977
From: Одесса
On Forums: 10 years 2 weeks
Thanks: 7600 time(s)
Ukraine


(IMG:http://metalarea.org/images/audiocovers/2018_Jun/acov_tid307093_thumb.jpg)

*Artist: Perditus
*Album: Habgier Und Missgunst [ep]
*Year: 2018
*Genre: Instrumental Black Metal
*Country: Austria (IMG:http://metalarea.org/forum/style_images/flags/Austria.png)
*Format: mp3@CBR320kbps
*Size: 48MB

Tracklist:
1. Leid 03:22
2. Tortur 02:12
3. Verlust 02:20
4. Erlass 03:25
5. Anmut 08:56
******************************
Total playing time: 20:15



Technical info
(IMG:http://metalarea.org/images/spectrogram/2018_Jun/553f0ae4bee616477d13bf9e43295d09.png)
Input File: 03. Verlust.mp3
Channels : 2
Sample Rate : 48000
Precision : 16-bit
Duration : 00:02:20.50 = 6743952 samples ~ 10537.4 CDDA sectors
File Size : 5.71M
Bit Rate : 325k
Sample Encoding: MPEG audio (layer I, II or III)
Comments :
Title=Verlust
Artist=Perditus
Album=Habgier Und Missgunst (EP)
Tracknumber=3
Year=2018
Genre=Instrumental Black Metal



Register


Go to the top of the page
  Insert nick Quick quote
+Quote Post

Reply to this topicStart new topic
2 User(s) are reading this topic (2 Guests and 0 Anonymous Users)
0 Members:

 



- Lo-Fi Version Support form
Copyrights and abuse reports form
Time is now: 21st June 2018 - 07:39:49