Welcome Guest ( Log In | Register )

> Mörkö - Ulvova Tyhjyys (2018), Avant-garde/Black Metal (D)
post Jun 13 2018, 17:51:52
Post #1

Маньяк
**********
Group: Металариец
Posts: 1,347
Releases: 1047
From: Prešov
On Forums: 4 years 4 months
Thanks: 24075 time(s)
Slovakia


(IMG:http://metalarea.org/images/audiocovers/2018_Jun/acov_tid307094_thumb.jpg)

*Artist: Mörkö
*Album: Ulvova Tyhjyys
*Year: 2018
*Genre: Avant-garde/Black Metal
*Country: Finland (IMG:http://metalarea.org/forum/style_images/flags/Finland.png)
*Format: mp3@CBR320kbps
*Size: 87MB

Tracklist:
1. Sikiäminen 07:33
2. Kerääntyminen 10:33
3. Hajaantuminen 10:31
4. Luopuminen 08:51
******************************
Total playing time: 37:28



Extended info
Mortuary Tapes, 2018
Tape-rip.

KVLT!


Technical info
(IMG:http://metalarea.org/images/spectrogram/2018_Jun/b4e2d943047aef94c6ed54ffd35468fb.png)
Input File: A2. Kerääntyminen.mp3
Channels : 2
Sample Rate : 48000
Precision : 16-bit
Duration : 00:10:34.51 = 30456720 samples ~ 47588.6 CDDA sectors
File Size : 25.5M
Bit Rate : 321k
Sample Encoding: MPEG audio (layer I, II or III)
Comments :
Title=Kerääntyminen
Artist=Mörkö
Album=Ulvova Tyhjyys
Tracknumber=02/04
Year=2018
Genre=Black Metal



Register


Go to the top of the page
  Insert nick Quick quote
+Quote Post
 
Start new topic
Replies (1 - 1)
post Jun 23 2018, 10:33:00
Post #2

стазис эпидерсис
***********
Group: Металариец
Posts: 1,886
Releases: 0
On Forums: 2 years 6 months
Thanks: 1179 time(s)
Unknown


слишком экспериментально разноплановый материал, чтобы воспринимать его как цельный опус.
забуду пожалуй.
Go to the top of the page
  Insert nick Quick quote
+Quote Post

Reply to this topicStart new topic
1 User(s) are reading this topic (1 Guests and 0 Anonymous Users)
0 Members:

 



- Lo-Fi Version Support form
Copyrights and abuse reports form
Time is now: 17th August 2018 - 08:38:08