Welcome Guest ( Log In | Register )

> 

Здесь релизы с живыми прямыми ссылками на lossless

> Funeral Mist - Hekatomb (2018), Black Metal
post Jun 13 2018, 18:29:10
Post #1

Detective Godzilla
**************
Group: Металариец
Posts: 2,370
Releases: 155
On Forums: 7 years 4 months
Thanks: 4400 time(s)
Russian Federation


(IMG:https://metalarea.org/images/audiocovers/2018_Jun/acov_tid307098_thumb.jpg)

*Artist: Funeral Mist
*Album: Hekatomb
*Year: 2018
*Genre: Black Metal
*Country: Sweden (IMG:https://metalarea.org/forum/style_images/flags/Sweden.png)
*Format: mp3@CBR320kbps
*Size: 117MB

Tracklist:
01. In Nomine Domini
02. Naught But Death
03. Shedding Skin
04. Cockatrice
05. Metamorphosis
06. Within the Without
07. Hosanna
08. Pallor Mortis
******************************
Total playing time: 43:01

Extended info
Promo Stuff


Technical info
(IMG:https://metalarea.org/images/spectrogram/2018_Jun/0c61a3d31e890a64c5f8ccc6391d64d7.png)
Input File: 05. Metamorphosis.mp3
Channels : 2
Sample Rate : 44100
Precision : 16-bit
Duration : 00:07:34.71 = 20052579 samples = 34103 CDDA sectors
File Size : 20.1M
Bit Rate : 354k
Sample Encoding: MPEG audio (layer I, II or III)
Comments :
Title=05_Metamorphosis
Artist=Funeral Mist
Album=Hekatomb
Tracknumber=5/8
Year=2018
Genre=Metal



Register


Go to the top of the page
  Insert nick Quick quote
+Quote Post
3 Pages V  < 1 2 3  
Start new topic
Replies (60 - 65)
post Jun 19 2018, 14:04:05
Post #61

Маньяк
**********
Group: Металариец
Posts: 1,179
Releases: 0
On Forums: 10 years 4 months
Thanks: 419 time(s)
Russian Federation


MARDUK какойто.
Go to the top of the page
  Insert nick Quick quote
+Quote Post
post Jun 19 2018, 14:48:53
Post #62

Satan bless you!
**************
Group: Металариец
Posts: 3,153
Releases: 63
From: Москва
On Forums: 9 years 11 months
Thanks: 2712 time(s)
Russian Federation


Да, кстати не понравился релиз - мимо проехал, даже не за что зацепиться))
Go to the top of the page
  Insert nick Quick quote
+Quote Post
post Yesterday, 18:43:07
Post #63

Necromancer
Group Icon
Group: Curation team
Posts: 10,679
Releases: 271
From: Зеленоград
On Forums: 11 years 8 months
Thanks: 8581 time(s)
Russian Federation


Давно, конечно, ждали этот альбом но ничего особенного, лично я, в нем не услышал. (IMG:style_emoticons/default/6.gif)
Go to the top of the page
  Insert nick Quick quote
+Quote Post
post Yesterday, 18:49:30
Post #64

Правь статус, ####!111
**************
Group: Металариец
Posts: 32,168
Releases: 486
On Forums: 9 years 2 weeks
Thanks: 24654 time(s)
Russian Federation


ЦИТАТА(Fess @ Jun 20 2018, 20:43:07) *
Давно, конечно, ждали этот альбом но ничего особенного, лично я, в нем не услышал. (IMG:style_emoticons/default/6.gif)


Знакомые слова (IMG:style_emoticons/default/1488.gif)
Go to the top of the page
  Insert nick Quick quote
+Quote Post
post Yesterday, 19:47:45
Post #65

Два Литра
**
Group: Завсегдатай
Posts: 141
Releases: 0
On Forums: 8 months 3 weeks
Thanks: 165 time(s)
Unknown


Великолепная работа . Это поучающее звуковое безумство фронтмЭна Мардука .., и нет тут самого Мардука ,а есть разнонаправленное и идущее паралельными тремольными ритмами эмоциональное бл..атсь..\/о темное , и такое онО им и всем не простое и оседлогрязное гитарное бессовство качественное .И оно вырыгивает в бульки святошам разные Адские мотивы и ЭтьС есть хорошо..
Да это не Maranatha , да Maranatha была гениальна , .., ну так слушайте ее в 1000раз , а яхаваю много и часто, и мне ее мало , а тут есть , что покурить ..
Первая половина гениальна и разнообразна по корошЕму. В Аду жгучего соуса прибыло..Чернь на грани Граней безумства первые три трека.. Разные звуковые и вокальные Фишки Темени восхищают, и особенно в 04. Cockatrice сносят мосК. А трек 05. Metamorphosis это онТогенез современной европейской школы заземления .И песнЬ - 08. Pallor Mortis - современный по хорошему оргазмический -суккубо-сатанинский гимн.. (IMG:style_emoticons/default/true_black.gif)


Thanks:
Go to the top of the page
  Insert nick Quick quote
+Quote Post
post Yesterday, 19:51:35
Post #66

Правь статус, ####!111
**************
Group: Металариец
Posts: 32,168
Releases: 486
On Forums: 9 years 2 weeks
Thanks: 24654 time(s)
Russian Federation


nunim

(IMG:https://c.radikal.ru/c32/1806/f0/1d71a1c10733.jpg)


Thanks:
Go to the top of the page
  Insert nick Quick quote
+Quote Post

3 Pages V  < 1 2 3
Reply to this topicStart new topic
2 User(s) are reading this topic (2 Guests and 0 Anonymous Users)
0 Members:

 



- Lo-Fi Version Support form
Copyrights and abuse reports form
Time is now: 21st June 2018 - 07:37:24