Welcome Guest ( Log In | Register )

> Paysage D'Hiver & Nordlicht - Schnee (III)/Füür Rouch Ruäss [split] (2018), Black Metal | Black Metal (D)
post Jun 13 2018, 18:34:38
Post #1

Маньяк
**********
Group: Металариец
Posts: 1,406
Releases: 1094
From: Prešov
On Forums: 4 years 6 months
Thanks: 25605 time(s)
Slovakia


(IMG:http://metalarea.org/images/audiocovers/2018_Jun/acov_tid307100_thumb.jpg)

*Artist: Paysage D'Hiver & Nordlicht
*Album: Schnee (III)/Füür Rouch Ruäss [split]
*Year: 2018
*Genre: Black Metal | Black Metal
*Country: Switzerland (IMG:http://metalarea.org/forum/style_images/flags/Switzerland.png) | Switzerland (IMG:http://metalarea.org/forum/style_images/flags/Switzerland.png)
*Format: mp3@CBR320kbps
*Size: 85MB

Tracklist:
Paysage d'Hiver:
1. Schnee (III) 17:25
Nordlicht:
2. Füür Rouch Ruäss 16:40
******************************
Total playing time: 34:05




Extended info
Kunsthall Produktionen - Kunsthall 032


Technical info
(IMG:http://metalarea.org/images/spectrogram/2018_Jun/b05cc031ca205b7eb768a38d6d6e0c73.png)
Input File: 01. Paysage d\'Hiver - Schnee (III).mp3
Channels : 2
Sample Rate : 44100
Precision : 16-bit
Duration : 00:17:25.89 = 46123617 samples = 78441.5 CDDA sectors
File Size : 42.0M
Bit Rate : 322k
Sample Encoding: MPEG audio (layer I, II or III)
Comments :
Title=Schnee (III)
Artist=Paysage d'Hiver
Album=Schnee (III) - Füür Rouch Ruäss
Tracknumber=01/02
Year=2017
Genre=Black Metal



Register


Go to the top of the page
  Insert nick Quick quote
+Quote Post
 
Start new topic
Replies (1 - 2)
post Jun 13 2018, 19:17:54
Post #2
BAN
Banned till
Oct 23 2018, 12:27:08



@320

Register


Go to the top of the page
  Insert nick Quick quote
+Quote Post
post Jun 15 2018, 12:39:17
Post #3
BAN
Banned till
Oct 23 2018, 12:27:08



Пейзаж как обычно на отлично (IMG:style_emoticons/default/true_black.gif)
Go to the top of the page
  Insert nick Quick quote
+Quote Post

Reply to this topicStart new topic
1 User(s) are reading this topic (1 Guests and 0 Anonymous Users)
0 Members:

 



- Lo-Fi Version Support form
Copyrights and abuse reports form
Time is now: 18th October 2018 - 11:15:59