Welcome Guest ( Log In | Register )

> Releases Upload / Добавление релизов

Добавить релиз тут / Click here to add release
Рекомендованные обменники / Recommended file shares

> Paysage D'Hiver & Nordlicht - Schnee (III)/Füür Rouch Ruäss [split] (2018), Black Metal | Black Metal (D)
post Jun 13 2018, 18:34:38
Post #1

Маньяк
**********
Group: Металариец
Posts: 1,259
Releases: 966
From: Prešov
On Forums: 4 years 2 months
Thanks: 22503 time(s)
Slovakia


(IMG:http://metalarea.org/images/audiocovers/2018_Jun/acov_tid307100_thumb.jpg)

*Artist: Paysage D'Hiver & Nordlicht
*Album: Schnee (III)/Füür Rouch Ruäss [split]
*Year: 2018
*Genre: Black Metal | Black Metal
*Country: Switzerland (IMG:http://metalarea.org/forum/style_images/flags/Switzerland.png) | Switzerland (IMG:http://metalarea.org/forum/style_images/flags/Switzerland.png)
*Format: mp3@CBR320kbps
*Size: 85MB

Tracklist:
Paysage d'Hiver:
1. Schnee (III) 17:25
Nordlicht:
2. Füür Rouch Ruäss 16:40
******************************
Total playing time: 34:05




Extended info
Kunsthall Produktionen - Kunsthall 032


Technical info
(IMG:http://metalarea.org/images/spectrogram/2018_Jun/b05cc031ca205b7eb768a38d6d6e0c73.png)
Input File: 01. Paysage d\'Hiver - Schnee (III).mp3
Channels : 2
Sample Rate : 44100
Precision : 16-bit
Duration : 00:17:25.89 = 46123617 samples = 78441.5 CDDA sectors
File Size : 42.0M
Bit Rate : 322k
Sample Encoding: MPEG audio (layer I, II or III)
Comments :
Title=Schnee (III)
Artist=Paysage d'Hiver
Album=Schnee (III) - Füür Rouch Ruäss
Tracknumber=01/02
Year=2017
Genre=Black Metal



Register


Go to the top of the page
  Insert nick Quick quote
+Quote Post
 
Start new topic
Replies (1 - 2)
post Jun 13 2018, 19:17:54
Post #2

Правь статус, ####!111
**************
Group: Металариец
Posts: 31,945
Releases: 486
On Forums: 9 years 2 weeks
Thanks: 24525 time(s)
Russian Federation


@320

Register


Go to the top of the page
  Insert nick Quick quote
+Quote Post
post Jun 15 2018, 12:39:17
Post #3

Правь статус, ####!111
**************
Group: Металариец
Posts: 31,945
Releases: 486
On Forums: 9 years 2 weeks
Thanks: 24525 time(s)
Russian Federation


Пейзаж как обычно на отлично (IMG:style_emoticons/default/true_black.gif)
Go to the top of the page
  Insert nick Quick quote
+Quote Post

Reply to this topicStart new topic
2 User(s) are reading this topic (2 Guests and 0 Anonymous Users)
0 Members:

 



- Lo-Fi Version Support form
Copyrights and abuse reports form
Time is now: 18th June 2018 - 08:20:44