Welcome Guest ( Log In | Register )

> Releases Upload / Добавление релизов

Добавить релиз тут / Click here to add release
Рекомендованные обменники / Recommended file shares

 
Reply to this topicStart new topic
> TRC - Lifestyle [ep] (2018), Metalcore/Beatdown Hardcore/Rapcore
post Jun 13 2018, 19:37:47
Post #1

Маньяк
**********
Group: Металариец
Posts: 1,158
Releases: 115
On Forums: 8 years 10 months
Thanks: 892 time(s)
Kazakhstan


(IMG:http://metalarea.org/images/audiocovers/2018_Jun/acov_tid307101_thumb.jpg)

*Artist: TRC
*Album: Lifestyle [ep]
*Year: 2018
*Genre: Metalcore/Beatdown Hardcore/Rapcore
*Country: United Kingdom (IMG:http://metalarea.org/forum/style_images/flags/United%20Kingdom.png)
*Format: mp3@CBR320kbps
*Size: 66MB

Tracklist:
1.Moaner 03:09
2.Scrounger 04:01
3.London's Greatest Love Story Part II 05:31
4.Same. But Better. 04:02
5.Take It 05:58
6.Lifestyle 05:33
******************************
Total playing time: 28:14



Extended info
Наконец разродились после 5 лет

весьма странная спектруха, признаюсь честно


Technical info
(IMG:http://metalarea.org/images/spectrogram/2018_Jun/9c6fdc1cd928288ba948ef718f37eb56.png)
Input File: 03. London\'s Greatest Love Story Part II.mp3
Channels : 2
Sample Rate : 44100
Precision : 16-bit
Duration : 00:00:00.33 = 14597 samples = 24.8248 CDDA sectors
File Size : 13.4M
Bit Rate : 324M
Sample Encoding: MPEG audio (layer I, II or III)
Comments :
Title=London's Greatest Love Story Part II
Artist=TRC
Album=Lifestyle
Tracknumber=3/6
Year=2018
Genre=Hardcore
Discnumber=1/1



Register


Go to the top of the page
  Insert nick Quick quote
+Quote Post

Reply to this topicStart new topic
1 User(s) are reading this topic (1 Guests and 0 Anonymous Users)
0 Members:

 



- Lo-Fi Version Support form
Copyrights and abuse reports form
Time is now: 21st June 2018 - 07:36:16