Welcome Guest ( Log In | Register )

> Wilcy - Żertwa (2018), Pagan Black Metal
post Jun 13 2018, 20:27:40
Post #1

Время Мары
**************
Group: Металариец
Posts: 2,914
Releases: 371
From: Харьков
On Forums: 9 years 2 months
Thanks: 7110 time(s)
Ukraine


(IMG:http://metalarea.org/images/audiocovers/2018_Jun/acov_tid307103_thumb.jpg)

*Artist: Wilcy
*Album: Żertwa
*Year: 2018
*Genre: Pagan Black Metal
*Country: Poland (IMG:http://metalarea.org/forum/style_images/flags/Poland.png)
*Format: mp3@CBR320kbps
*Size: 94MB

Tracklist:
1. Martwe Zakątki Nawii
2. Zdepczę Twój Tron!
3. Młot Czasu
4. Wilcy II
5. Prawia, Jawia, Nawia
6. Zatracenie
7. W Otchłani Gonu
8. Płomienie
******************************
Total playing time: 41:18




Technical info
(IMG:http://metalarea.org/images/spectrogram/2018_Jun/0b2c5a8a44ab3186f86def95c70a5c7b.png)
Input File: 05. Prawia, Jawia, Nawia.MP3
Channels : 2
Sample Rate : 44100
Precision : 16-bit
Duration : 00:05:56.40 = 15717196 samples = 26729.9 CDDA sectors
File Size : 14.3M
Bit Rate : 320k
Sample Encoding: MPEG audio (layer I, II or III)
Comments :
Title=Prawia, Jawia, Nawia
Artist=Wilcy
Album=Е»ertwa
Tracknumber=5
Year=2018



Register

Register


Go to the top of the page
  Insert nick Quick quote
+Quote Post
 
Start new topic
Replies (1 - 2)
post Jun 14 2018, 02:37:32
Post #2

\m/
Group Icon
Group: S-moderation team
Posts: 7,454
Releases: 19
From: Петропавловск-Камчатский
On Forums: 9 years 2 months
Thanks: 6713 time(s)
Russian Federation


Added links by smysl


Thanks:
(1) vasilisk,
Go to the top of the page
  Insert nick Quick quote
+Quote Post
post Jun 24 2018, 06:10:12
Post #3

кручу наждак
**************
Group: Металариец
Posts: 3,318
Releases: 87
From: Самара
On Forums: 8 years 3 months
Thanks: 2479 time(s)
Russian Federation


Отличная чернуха.
Go to the top of the page
  Insert nick Quick quote
+Quote Post

Reply to this topicStart new topic
1 User(s) are reading this topic (1 Guests and 0 Anonymous Users)
0 Members:

 



- Lo-Fi Version Support form
Copyrights and abuse reports form
Time is now: 17th August 2018 - 08:38:05