Welcome Guest ( Log In | Register )

> И неформату есть предел.

Рэп/хип-хоп/шансон/поп удаляются. Для них есть свои порталы.

> Belinda Carlisle - Runaway Horses (1989), Pop/Rock
post Jun 13 2018, 21:28:43
Post #1

MDM-Thrash Metal
**************
Group: Металариец
Posts: 7,152
Releases: 421
From: Одесса
On Forums: 11 years 2 months
Thanks: 13637 time(s)
Ukraine


(IMG:http://metalarea.org/images/audiocovers/2018_Jun/acov_tid307104_thumb.jpg)

*Artist: Belinda Carlisle
*Album: Runaway Horses
*Year: 1989
*Genre: Pop/Rock
*Country: United States (IMG:http://metalarea.org/forum/style_images/flags/United%20States.png)
*Format: mp3@CBR320kbps
*Size: 119MB

Tracklist:
01. Leave A Light On 04:37
02. Runaway Horses 04:47
03. Vision of You 04:41
04. Summer Rain 05:32
05. La Luna 04:45
06. (We Want) The Same Thing 03:53
07. Deep Deep Ocean 04:05
08. Valentine 05:04
09. Whatever It Takes 04:49
10. Shades of Michaelangelo 05:49
11. Leave A Light On (Single Version) 04:15
******************************
Total playing time: 52:17

Extended info
Также как и альбом 1987 года - этот наполнен прекрасными хитами!







Technical info
(IMG:http://metalarea.org/images/spectrogram/2018_Jun/810ce9a29a12e5b47a1c304e06889777.png)
Input File: 02_belinda_carlisle_runaway_horses.mp3
Channels : 2
Sample Rate : 44100
Precision : 16-bit
Duration : 00:04:43.14 = 12486606 samples = 21235.7 CDDA sectors
File Size : 11.3M
Bit Rate : 320k
Sample Encoding: MPEG audio (layer I, II or III)
Comments :
Title=Runaway Horses
Artist=Belinda Carlisle
Album=Runaway Horses (Remastered Deluxe)
Tracknumber=2/17
Year=2013



Register


Go to the top of the page
  Insert nick Quick quote
+Quote Post
 
Start new topic
Replies (1 - 4)
post Jun 17 2018, 14:49:29
Post #2

South Of Heaven /адепт ВУДУ
**************
Group: Металариец
Posts: 13,052
Releases: 7
From: Санкт-Петербург
On Forums: 8 years 6 months
Thanks: 4737 time(s)
Russian Federation


Предыдущий альбом от 1987 года для меня радикально интереснее (IMG:style_emoticons/default/banana.gif)
Go to the top of the page
  Insert nick Quick quote
+Quote Post
post Jun 17 2018, 18:25:39
Post #3

Правь статус, ####!111
**************
Group: Металариец
Posts: 2,657
Releases: 0
From: Одесса
On Forums: 10 years 7 months
Thanks: 1058 time(s)
Ukraine


I thought it was new Nergal's project from the cover


Thanks:
(1) Ghostb,
Go to the top of the page
  Insert nick Quick quote
+Quote Post
post Jun 17 2018, 19:17:53
Post #4

Два Литра
**
Group: Завсегдатай
Posts: 109
Releases: 0
On Forums: 10 years 9 months
Thanks: 18 time(s)
Russian Federation


ЦИТАТА(avkruchinin @ Jun 17 2018, 16:49:29) *
Предыдущий альбом от 1987 года для меня радикально интереснее (IMG:style_emoticons/default/banana.gif)

соглашусь, 87 хитовее, из этого тока Ла Луна помница
Go to the top of the page
  Insert nick Quick quote
+Quote Post
post Jun 17 2018, 22:24:38
Post #5

MDM-Thrash Metal
**************
Group: Металариец
Posts: 7,152
Releases: 421
From: Одесса
On Forums: 11 years 2 months
Thanks: 13637 time(s)
Ukraine


ЦИТАТА(Unkle Jonny @ Jun 17 2018, 21:17:53) *
тока Ла Луна помница

На мой взгляд не самая яркая вещь, есть и поинтереснее на альбоме:

1. Leave A Light On
2. Runaway Horses
6. (We Want) The Same Thing
7. Deep Deep Ocean
Go to the top of the page
  Insert nick Quick quote
+Quote Post

Reply to this topicStart new topic
1 User(s) are reading this topic (1 Guests and 0 Anonymous Users)
0 Members:

 



- Lo-Fi Version Support form
Copyrights and abuse reports form
Time is now: 17th October 2018 - 21:02:57