Welcome Guest ( Log In | Register )

> Dead Reptile Shrine - Blood Grail (The Infinite Equinox) [demo] (2007), Experimental Black Metal
post Jun 13 2018, 21:59:30
Post #1

а ты попал в даунтаун
**********
Group: Металариец
Posts: 1,007
Releases: 46
From: Москва
On Forums: 9 years 5 months
Thanks: 2890 time(s)
Russian Federation


(IMG:http://metalarea.org/images/audiocovers/2018_Jun/acov_tid307105_thumb.jpg)

*Artist: Dead Reptile Shrine
*Album: Blood Grail (The Infinite Equinox) [demo]
*Year: 2007
*Genre: Experimental Black Metal
*Country: Finland (IMG:http://metalarea.org/forum/style_images/flags/Finland.png)
*Format: mp3@CBR320kbps
*Size: 89MB

Tracklist:
01. Opening the Gates of Per/se/psi/on [I] 02:32
02. The Veil of For/ni/kat/ion [XI] 04:01
03. Sacrilegious Cunt 03:43
04. Opening the Gates of Per/se/psi/on [II] 04:07
05. Opening the Gates of Per/se/psi/on [III] 04:16
06. The Veil of For/ni/kat/ion [V] 11:40
07. The Veil of For/ni/kat/ion [X] 07:18
******************************
Total playing time: 37:37

Extended info
Antihumanism Records


Technical info
(IMG:http://metalarea.org/images/spectrogram/2018_Jun/ab0334fedea39b21f3c72eaf01df1dc0.png)
Input File: 02 - The Veil of Fornikation [XI].mp3
Channels : 2
Sample Rate : 44100
Precision : 16-bit
Duration : 00:04:01.50 = 10650326 samples = 18112.8 CDDA sectors
File Size : 9.74M
Bit Rate : 323k
Sample Encoding: MPEG audio (layer I, II or III)
Comments :
Title=The Veil of For/ni/kat/ion [XI]
Artist=Dead Reptile Shrine
Album=Blood Grail (The Infinite Equinox)
Tracknumber=02/07
Year=2007
Genre=Black Metal
Discnumber=1/1



Register


Go to the top of the page
  Insert nick Quick quote
+Quote Post
 
Start new topic
Replies (1 - 2)
post Jun 14 2018, 07:25:49
Post #2

Detective Godzilla
**************
Group: Металариец
Posts: 2,568
Releases: 186
On Forums: 7 years 7 months
Thanks: 5517 time(s)
Russian Federation


(IMG:style_emoticons/default/spitggis0.gif)
Go to the top of the page
  Insert nick Quick quote
+Quote Post
post Jun 14 2018, 17:35:56
Post #3

а ты попал в даунтаун
**********
Group: Металариец
Posts: 1,007
Releases: 46
From: Москва
On Forums: 9 years 5 months
Thanks: 2890 time(s)
Russian Federation


Если вдруг кто пропустил (секция неформата пользуется куда меньшим вниманием):
Dead Reptile Shrine - Sabbat [demo] (2007)
В программе, среди прочего, сэмпл с отжигающим под "калинку-малинку" Ельциным (IMG:style_emoticons/default/25.gif)


Thanks:
Go to the top of the page
  Insert nick Quick quote
+Quote Post

Reply to this topicStart new topic
2 User(s) are reading this topic (2 Guests and 0 Anonymous Users)
0 Members:

 



- Lo-Fi Version Support form
Copyrights and abuse reports form
Time is now: 24th September 2018 - 20:01:05