Welcome Guest ( Log In | Register )

> И неформату есть предел.

Рэп/хип-хоп/шансон/поп удаляются. Для них есть свои порталы.

> Dead Reptile Shrine - Sabbat [demo] (2007), Noise
post Jun 13 2018, 22:00:58
Post #1

а ты попал в даунтаун
*********
Group: Металариец
Posts: 980
Releases: 46
From: Москва
On Forums: 9 years 3 months
Thanks: 2833 time(s)
Russian Federation


(IMG:http://metalarea.org/images/audiocovers/2018_Jun/acov_tid307106_thumb.jpg)

*Artist: Dead Reptile Shrine
*Album: Sabbat [demo]
*Year: 2007
*Genre: Noise
*Country: Finland (IMG:http://metalarea.org/forum/style_images/flags/Finland.png)
*Format: mp3@CBR320kbps
*Size: 59MB

Tracklist:
01. Abominated By Radiation 06:47
02. Yezhovschnina 06:12
03. Sabbat, Part One - Trap at Ground Level 02:38
04. Sabbat, Part Two - Electrocuted By Anal 09:23
******************************
Total playing time: 25:00

Extended info
Skulls Of Heaven
"All noise degenerated through sabbathic rites in MM & MMVI.
The voices from the deep woods have been used as source material."


Technical info
(IMG:http://metalarea.org/images/spectrogram/2018_Jun/936cc459804c8a5b5fabf7a03f22b1ce.png)
Input File: 02 - Yezhovschnina.mp3
Channels : 2
Sample Rate : 44100
Precision : 16-bit
Duration : 00:06:13.01 = 16449785 samples = 27975.8 CDDA sectors
File Size : 15.0M
Bit Rate : 321k
Sample Encoding: MPEG audio (layer I, II or III)
Comments :
Title=Yezhovschnina
Artist=Dead Reptile Shrine
Album=Sabbat
Tracknumber=02/04
Year=2007
Genre=Noise
Discnumber=1/1



Register


Go to the top of the page
  Insert nick Quick quote
+Quote Post
 
Start new topic
Replies (1 - 1)
post Jun 21 2018, 04:59:31
Post #2

0,5 минералки и шоколадка
**************
Group: Металариец
Posts: 2,811
Releases: 120
From: Karelia
On Forums: 9 years 3 months
Thanks: 3747 time(s)
NATO


(IMG:style_emoticons/default/pray.gif) Ельцин (IMG:style_emoticons/default/9.gif)
Go to the top of the page
  Insert nick Quick quote
+Quote Post

Reply to this topicStart new topic
1 User(s) are reading this topic (1 Guests and 0 Anonymous Users)
0 Members:

 



- Lo-Fi Version Support form
Copyrights and abuse reports form
Time is now: 16th August 2018 - 11:24:28