Welcome Guest ( Log In | Register )

> Releases Upload / Добавление релизов

Добавить релиз тут / Click here to add release
Рекомендованные обменники / Recommended file shares

> Emerging Chaos - The Roots Of Lunacy (2018), Old School Thrash/Death Metal
post Jun 13 2018, 22:04:50
Post #1

Правь статус, ####!111
**************
Group: Металариец
Posts: 13,381
Releases: 9427
From: Г.Харьков
On Forums: 6 years 1 month
Thanks: 153930 time(s)
Unknown


(IMG:http://metalarea.org/images/audiocovers/2018_Jun/acov_tid307107_thumb.jpg)

*Artist: Emerging Chaos
*Album: The Roots Of Lunacy
*Year: 2018
*Genre: Old School Thrash/Death Metal
*Country: Portugal (IMG:http://metalarea.org/forum/style_images/flags/Portugal.png)
*Format: mp3@CBR320kbps
*Size: 91MB

Tracklist:
1. Mutilated 04:27
2. Naked 03:53
3. In This Room 05:47
4. The Remains 04:44
5. The Urge 00:28 instrumental
6. The Truth Needs No Amplifier 04:42
7. The Recruiter 05:06
8. Captain of Lunacy 06:23
9. Sickth Sense 03:46
******************************
Total playing time: 39:16




Extended info
Pedro Nascimento Bass
Jorge Silva Drums
Tainan Reis Guitars
Jim Gäddnäs Vocals


Technical info
(IMG:http://metalarea.org/images/spectrogram/2018_Jun/24ceba5ea801df522a9e3e5bfa1ce694.png)
Input File: 03 - In This Room.mp3
Channels : 2
Sample Rate : 44100
Precision : 16-bit
Duration : 00:05:49.11 = 15395575 samples = 26183 CDDA sectors
File Size : 14.0M
Bit Rate : 322k
Sample Encoding: MPEG audio (layer I, II or III)
Comments :
Title=In This Room
Artist=Emerging Chaos
Album=The Roots of Lunacy
Tracknumber=3/9
Year=2018



Register


Thanks:
Go to the top of the page
  Insert nick Quick quote
+Quote Post
 
Start new topic
Replies (1 - 4)
post Jun 14 2018, 02:42:19
Post #2

Правь статус, ####!111
**************
Group: Металариец
Posts: 13,381
Releases: 9427
From: Г.Харьков
On Forums: 6 years 1 month
Thanks: 153930 time(s)
Unknown


Register


Go to the top of the page
  Insert nick Quick quote
+Quote Post
post Jun 14 2018, 06:03:19
Post #3

hearer & reader
**************
Group: Металариец
Posts: 6,402
Releases: 81
From: Moscow
On Forums: 10 years 9 months
Thanks: 6418 time(s)
Russian Federation



Рип, случаем, не отсюда ли содран?
Несколько меланхолично, но весьма прилично. Приятный звук.
Go to the top of the page
  Insert nick Quick quote
+Quote Post
post Jun 14 2018, 07:40:25
Post #4

Аполітичний
**************
Group: Металариец
Posts: 5,103
Releases: 143
From: Тимчасово окупована територія - Юзівка
On Forums: 9 years 10 months
Thanks: 5320 time(s)
Ukraine


Олдскулом бы это не назвал.
Go to the top of the page
  Insert nick Quick quote
+Quote Post
post Jun 15 2018, 07:26:16
Post #5

Маньяк
**********
Group: Металариец
Posts: 1,071
Releases: 0
From: Dnipro
On Forums: 9 years 11 months
Thanks: 276 time(s)
Ukraine


ЦИТАТА(neoatheist @ Jun 14 2018, 09:40:25) *
Олдскулом бы это не назвал.
не олдскул, просто трэш-дэт
Go to the top of the page
  Insert nick Quick quote
+Quote Post

Reply to this topicStart new topic
2 User(s) are reading this topic (2 Guests and 0 Anonymous Users)
0 Members:

 



- Lo-Fi Version Support form
Copyrights and abuse reports form
Time is now: 23rd June 2018 - 03:39:05