Welcome Guest ( Log In | Register )

> Eternal Candle - The Carved Karma (2018), Progressive Doom/Death Metal
post Jun 13 2018, 22:29:42
Post #1

Правь статус, ####!111
**************
Group: Металариец
Posts: 13,932
Releases: 9724
From: Г.Харьков
On Forums: 6 years 3 months
Thanks: 159482 time(s)
Unknown


(IMG:http://metalarea.org/images/audiocovers/2018_Jun/acov_tid307108_thumb.jpg)

*Artist: Eternal Candle
*Album: The Carved Karma
*Year: 2018
*Genre: Progressive Doom/Death Metal
*Country: Iran (IMG:http://metalarea.org/forum/style_images/flags/Iran.png)
*Format: mp3@CBR320kbps
*Size: 134MB

Tracklist:
1. In the Absence of Us 02:32 instrumental
2. The Ripped Soul 06:54
3. Sick Romance 05:11
4. A Path to Infinity 06:44
5. A Dismal Inhabitant 06:10
6. The Absurd Sanity 05:34
7. The Void 03:00 instrumental
8. Hear My Cry 04:25
9. My Turn 06:34
10. Prayer of the Hopeless 05:35
11. A Wage of Affliction 05:30
******************************
Total playing time: 58:09




Extended info
Amir Taghavi Guitars
Mahdi Sorrow Vocals (clean), Guitars, Songwriting (tracks 1-10)
Josef Habibi Drums
Armin Afzali Bass, Songwriting (track 11)
Babak Torkzadeh Vocals


Technical info
(IMG:http://metalarea.org/images/spectrogram/2018_Jun/ad365461b4da6b0ce7710f5bd9400174.png)
Input File: 02 - The Ripped Soul.mp3
Channels : 2
Sample Rate : 44100
Precision : 16-bit
Duration : 00:06:52.09 = 18173345 samples = 30907 CDDA sectors
File Size : 16.6M
Bit Rate : 322k
Sample Encoding: MPEG audio (layer I, II or III)
Comments :
Title=The Ripped Soul
Artist=Eternal Candle
Album=The Carved Karma
Tracknumber=2/11
Year=2018



Register


Go to the top of the page
  Insert nick Quick quote
+Quote Post
 
Start new topic
Replies (1 - 2)
post Jun 14 2018, 02:43:58
Post #2

Правь статус, ####!111
**************
Group: Металариец
Posts: 13,932
Releases: 9724
From: Г.Харьков
On Forums: 6 years 3 months
Thanks: 159482 time(s)
Unknown


Register


Thanks:
Go to the top of the page
  Insert nick Quick quote
+Quote Post
post Jun 15 2018, 07:25:37
Post #3

Маньяк
**********
Group: Металариец
Posts: 1,195
Releases: 0
From: Dnipro
On Forums: 10 years 1 month
Thanks: 319 time(s)
Ukraine


как то не оно.
Go to the top of the page
  Insert nick Quick quote
+Quote Post

Reply to this topicStart new topic
1 User(s) are reading this topic (1 Guests and 0 Anonymous Users)
0 Members:

 



- Lo-Fi Version Support form
Copyrights and abuse reports form
Time is now: 17th August 2018 - 08:38:13