Welcome Guest ( Log In | Register )

> Bloody Tyrant - Hagakure (2018), Melodic Black/Folk Metal (D5)
post Jun 13 2018, 22:47:35
Post #1

Правь статус, ####!111
**************
Group: Металариец
Posts: 14,311
Releases: 9925
From: Г.Харьков
On Forums: 6 years 4 months
Thanks: 162878 time(s)
Unknown


(IMG:http://metalarea.org/images/audiocovers/2018_Jun/acov_tid307110_thumb.png)

*Artist: Bloody Tyrant
*Album: Hagakure
*Year: 2018
*Genre: Melodic Black/Folk Metal
*Country: Taiwan (IMG:http://metalarea.org/forum/style_images/flags/Taiwan.png)
*Format: mp3@CBR320kbps
*Size: 103MB

Tracklist:
1. Pace Into The Void 06:54
2. In The Shade Of Leaves 05:02
3. Empty Mind 05:55
4. Blade Philosophy 06:21
5. Facing Death 04:27
6. Ceremony Of Suicide 04:53
7. Tower Of Sadness 05:53
8. Reflection 04:12
******************************
Total playing time: 43:37



Extended info


Technical info
(IMG:http://metalarea.org/images/spectrogram/2018_Jun/5f009ff4fd1be3ea58e696742f40e04c.png)
Input File: 02 - In The Shade Of Leaves (葉隱).mp3
Channels : 2
Sample Rate : 44100
Precision : 16-bit
Duration : 00:05:03.05 = 13364549 samples = 22728.8 CDDA sectors
File Size : 12.6M
Bit Rate : 334k
Sample Encoding: MPEG audio (layer I, II or III)
Comments :
Title=In The Shade Of Leaves (葉隱)
Artist=Bloody Tyrant (жљґеђ›)
Album=Hagakure (葉隱)
Tracknumber=2
Year=2018
Genre=Black Metal



Register


Go to the top of the page
  Insert nick Quick quote
+Quote Post
 
Start new topic
Replies (1 - 9)
post Jun 14 2018, 02:45:46
Post #2

Правь статус, ####!111
**************
Group: Металариец
Posts: 14,311
Releases: 9925
From: Г.Харьков
On Forums: 6 years 4 months
Thanks: 162878 time(s)
Unknown


Register


Go to the top of the page
  Insert nick Quick quote
+Quote Post
post Jun 14 2018, 07:44:15
Post #3

Аполітичний
**************
Group: Металариец
Posts: 5,189
Releases: 143
From: Тимчасово окупована територія - Юзівка
On Forums: 10 years 1 month
Thanks: 5403 time(s)
Ukraine


Предыдущие были на уровне, помнится... (IMG:style_emoticons/default/hmm.gif)
Go to the top of the page
  Insert nick Quick quote
+Quote Post
post Jun 14 2018, 17:26:37
Post #4

Group: Дух
Posts: 3
Releases: 0
On Forums: 5 months 2 weeks
Thanks: 2 time(s)
Austria


This band has really proven themself as one of the best asian metal bands with folk influence in the last few years


Thanks:
Go to the top of the page
  Insert nick Quick quote
+Quote Post
post Jun 14 2018, 18:03:04
Post #5

Волк без яблока
**************
Group: Металариец
Posts: 13,063
Releases: 103
From: Санкт-Петербург
On Forums: 11 years 11 months
Thanks: 14668 time(s)
Russian Federation


the_metalist, actually, thanks for the tip.
Go to the top of the page
  Insert nick Quick quote
+Quote Post
post Jun 15 2018, 07:24:51
Post #6

Маньяк
**********
Group: Металариец
Posts: 1,329
Releases: 0
From: Dnipro
On Forums: 10 years 2 months
Thanks: 367 time(s)
Ukraine


ЦИТАТА(neoatheist @ Jun 14 2018, 09:44:15) *
Предыдущие были на уровне, помнится... (IMG:style_emoticons/default/hmm.gif)
Есть у них парочку нормальных, тут же чистоголосые распевки просто бесят.
Go to the top of the page
  Insert nick Quick quote
+Quote Post
post Jun 15 2018, 17:03:19
Post #7

Group: Дух
Posts: 3
Releases: 0
On Forums: 5 months 2 weeks
Thanks: 2 time(s)
Austria


QUOTE(MeatWolf @ Jun 14 2018, 19:03:04) *
the_metalist, actually, thanks for the tip.


You're welcome, I'm always glad to see other people that enjoy asia-flavoured metal.
Go to the top of the page
  Insert nick Quick quote
+Quote Post
post Jun 15 2018, 23:58:26
Post #8

Правь статус, ####!111
**************
Group: Металариец
Posts: 2,406
Releases: 11
From: Canada
On Forums: 11 years 3 months
Thanks: 1512 time(s)
Canada


Go to the top of the page
  Insert nick Quick quote
+Quote Post
post Jun 16 2018, 10:41:24
Post #9

Волк без яблока
**************
Group: Металариец
Posts: 13,063
Releases: 103
From: Санкт-Петербург
On Forums: 11 years 11 months
Thanks: 14668 time(s)
Russian Federation


В общем, получился такой неплохой китайский фолковый местами Инсомниум. К сожалению, 2 последних трека выпадают из альбома, тем не менее с интересом дослушал до конца, а начало вообще уровень.
Go to the top of the page
  Insert nick Quick quote
+Quote Post
post Jul 10 2018, 12:54:30
Post #10

Ъ
**************
Group: Металариец
Posts: 9,172
Releases: 9
On Forums: 9 years 8 months
Thanks: 1752 time(s)
Sweden


Неплохой альбом сам по себе, еще и не хило выделяющийся за счет китайского фолка. На второй раз слушалось уже не так интересно, но на раз прогнать очень даже!
Go to the top of the page
  Insert nick Quick quote
+Quote Post

Reply to this topicStart new topic
2 User(s) are reading this topic (2 Guests and 0 Anonymous Users)
0 Members:

 



- Lo-Fi Version Support form
Copyrights and abuse reports form
Time is now: 24th September 2018 - 01:09:50