Welcome Guest ( Log In | Register )

> Releases Upload / Добавление релизов

Добавить релиз тут / Click here to add release
Рекомендованные обменники / Recommended file shares

> Ego The Enemy - Imperfections [ep] (2018), Progressive/Melodic Death Metal
post Jun 13 2018, 23:10:20
Post #1

Правь статус, ####!111
**************
Group: Металариец
Posts: 13,362
Releases: 9421
From: Г.Харьков
On Forums: 6 years 1 month
Thanks: 153738 time(s)
Unknown


(IMG:http://metalarea.org/images/audiocovers/2018_Jun/acov_tid307111_thumb.jpg)

*Artist: Ego The Enemy
*Album: Imperfections [ep]
*Year: 2018
*Genre: Progressive/Melodic Death Metal
*Country: Italy (IMG:http://metalarea.org/forum/style_images/flags/Italy.png)
*Format: mp3@CBR320kbps
*Size: 57MB

Tracklist:
01. Dinner in the Chasm 04:32
02. Strangers 04:42
03. Pendulum 04:21
04. Suspended in Time 00:54
05. Mistakes 05:52
06. Illness Cry 06:40
******************************
Total playing time: 27:01



Extended info
Gianluca Dainese (Vocals);
Gregory Sobrio (Vocals);
Riccardo Di Vattimo (Lead Guitar);
Samuele Deiana (Rhythm Guitar);
Simone Gaggioli (Bass);
Norman Ceriotti (Drums).


Technical info
(IMG:http://metalarea.org/images/spectrogram/2018_Jun/6480501611fc5ae5b6e2b24215be50f4.png)
Input File: 02. Strangers.mp3
Channels : 2
Sample Rate : 44100
Precision : 16-bit
Duration : 00:04:42.80 = 12471524 samples = 21210.1 CDDA sectors
File Size : 11.4M
Bit Rate : 321k
Sample Encoding: MPEG audio (layer I, II or III)
Comments :
Title=Strangers
Artist=Ego the Enemy
Album=Imperfections
Tracknumber=2
Genre=Метал
Discnumber=1



Register


Go to the top of the page
  Insert nick Quick quote
+Quote Post
 
Start new topic
Replies (1 - 3)
post Jun 14 2018, 05:57:02
Post #2

hearer & reader
**************
Group: Металариец
Posts: 6,393
Releases: 81
From: Moscow
On Forums: 10 years 9 months
Thanks: 6415 time(s)
Russian Federation


Икстрим прог не мелодес. Но превью оценю позитивно.
Go to the top of the page
  Insert nick Quick quote
+Quote Post
post Jun 14 2018, 07:46:18
Post #3

Аполітичний
**************
Group: Металариец
Posts: 5,103
Releases: 143
From: Тимчасово окупована територія - Юзівка
On Forums: 9 years 9 months
Thanks: 5319 time(s)
Ukraine


ЦИТАТА(AHBAnep @ Jun 14 2018, 07:57:02) *
Икстрим прог не мелодес. Но превью оценю позитивно.


Да есть там МДМ, только слишуом современный (IMG:style_emoticons/default/1488.gif) А писклявый вокал желание качать отбил. (IMG:style_emoticons/default/bye.gif)
Go to the top of the page
  Insert nick Quick quote
+Quote Post
post Jun 14 2018, 08:26:08
Post #4

Правь статус, ####!111
**************
Group: Металариец
Posts: 32,168
Releases: 486
On Forums: 9 years 2 weeks
Thanks: 24654 time(s)
Russian Federation


ЦИТАТА(neoatheist @ Jun 14 2018, 10:46:18) *
А писклявый вокал желание качать отбил. (IMG:style_emoticons/default/bye.gif)


Трэш почему то писклявый вокал слушать и балдеть не мешает.

Приятный вокс и в тему.
Go to the top of the page
  Insert nick Quick quote
+Quote Post

Reply to this topicStart new topic
2 User(s) are reading this topic (2 Guests and 0 Anonymous Users)
0 Members:

 



- Lo-Fi Version Support form
Copyrights and abuse reports form
Time is now: 21st June 2018 - 07:25:55