Welcome Guest ( Log In | Register )

> Christ Dismembered - Spit Forth Your Lies [single] (2018), Black Metal
post Jun 14 2018, 01:02:54
Post #1

Правь статус, ####!616
**************
Group: Металариец
Posts: 4,404
Releases: 3004
From: 55°35’N 38°08’E
On Forums: 10 years 2 months
Thanks: 56506 time(s)
Unknown


(IMG:http://metalarea.org/images/audiocovers/2018_Jun/acov_tid307113_thumb.jpg)

*Artist: Christ Dismembered
*Album: Spit Forth Your Lies [single]
*Year: 2018
*Genre: Black Metal
*Country: Australia (IMG:http://metalarea.org/forum/style_images/flags/Australia.png)
*Format: mp3@CBR320kbps
*Size: 11MB

Tracklist:
1.Spit Forth Your Lies 04:33
******************************
Total playing time: 4:33

(IMG:http://metalarea.org/images/youtube.png)



Technical info
(IMG:http://metalarea.org/images/spectrogram/2018_Jun/d33ba06d872dcfd5a5960ed4dfc95766.png)
Input File: Christ Dismembered - Spit Forth Your Lies.mp3
Channels : 2
Sample Rate : 44100
Precision : 16-bit
Duration : 00:04:34.03 = 12084591 samples = 20552 CDDA sectors
File Size : 11.1M
Bit Rate : 324k
Sample Encoding: MPEG audio (layer I, II or III)
Comments :
Title=Spit Forth Your Lies
Artist=Christ Dismembered
Album=Spit Forth Your Lies
Year=2018
Genre=Black Metal



Register


Go to the top of the page
  Insert nick Quick quote
+Quote Post
 
Start new topic
Replies (1 - 2)
post Jun 15 2018, 08:25:14
Post #2

Satan bless you!
**************
Group: Металариец
Posts: 3,252
Releases: 63
From: Москва
On Forums: 10 years 2 months
Thanks: 2804 time(s)
Russian Federation


Молодняк решил поиграть блэк...унитазный звук и полное отсутствие собственных идей
Go to the top of the page
  Insert nick Quick quote
+Quote Post
post Jun 15 2018, 08:43:00
Post #3
BAN
Banned till
Oct 23 2018, 12:27:08



Полный шрот.

(IMG:http://i105.fastpic.ru/big/2018/0615/35/d9affb7bcf472c7f0a9d3bc84eb75835.jpg)
Go to the top of the page
  Insert nick Quick quote
+Quote Post

Reply to this topicStart new topic
2 User(s) are reading this topic (2 Guests and 0 Anonymous Users)
0 Members:

 



- Lo-Fi Version Support form
Copyrights and abuse reports form
Time is now: 24th September 2018 - 00:29:49