Welcome Guest ( Log In | Register )

> Mastermind - Conceiver Of Doom (2018), Thrash Metal (D9)
post Jun 14 2018, 01:11:31
Post #1

Правь статус, ####!111
**************
Group: Металариец
Posts: 14,311
Releases: 9925
From: Г.Харьков
On Forums: 6 years 4 months
Thanks: 162878 time(s)
Unknown


(IMG:http://metalarea.org/images/audiocovers/2018_Jun/acov_tid307114_thumb.jpg)

*Artist: Mastermind
*Album: Conceiver Of Doom
*Year: 2018
*Genre: Thrash Metal
*Country: Paraguay (IMG:http://metalarea.org/forum/style_images/flags/Paraguay.png)
*Format: mp3@CBR320kbps
*Size: 101MB

Tracklist:
01. Gates of Hell II
02. The Final Command
03. New World Order
04. April The 9th
05. Through The Night
06. Islamic Suicide
07. Conceiver Of Doom
08. Down To The Fiery Pits Of Hell
09. Aim To Kill
10. Underground
******************************
Total playing time: 44:40



Extended info
RICKY ACOSTA - GUITAR
CESAR ORTIGOZA - BASS/VOZ
BLAS CARDENAS - DRUMS
ELIAS MORA - GUITAR


Technical info
(IMG:http://metalarea.org/images/spectrogram/2018_Jun/c284fcfda8502012047dedc54f9ace02.png)
Input File: 02. The Final Command.mp3
Channels : 2
Sample Rate : 44100
Precision : 16-bit
Duration : 00:00:00.31 = 13759 samples = 23.3997 CDDA sectors
File Size : 12.6M
Bit Rate : 324M
Sample Encoding: MPEG audio (layer I, II or III)
Comments :
Title=The Final Command
Artist=Mastermind
Album=Conceiver Of Doom
Tracknumber=2/10
Year=2018-18-20
Discnumber=1/1



Register


Go to the top of the page
  Insert nick Quick quote
+Quote Post
 
Start new topic
Replies (1 - 1)
post Jun 14 2018, 02:50:01
Post #2

Правь статус, ####!111
**************
Group: Металариец
Posts: 14,311
Releases: 9925
From: Г.Харьков
On Forums: 6 years 4 months
Thanks: 162878 time(s)
Unknown


Register


Go to the top of the page
  Insert nick Quick quote
+Quote Post

Reply to this topicStart new topic
2 User(s) are reading this topic (2 Guests and 0 Anonymous Users)
0 Members:

 



- Lo-Fi Version Support form
Copyrights and abuse reports form
Time is now: 24th September 2018 - 01:38:07