Welcome Guest ( Log In | Register )

> Nethermost Majesty - Acuitas [ep] (2015), Black Metal
post Jun 14 2018, 01:12:53
Post #1

Правь статус, ####!616
**************
Group: Металариец
Posts: 4,404
Releases: 3004
From: 55°35’N 38°08’E
On Forums: 10 years 2 months
Thanks: 56509 time(s)
Unknown


(IMG:http://metalarea.org/images/audiocovers/2018_Jun/acov_tid307115_thumb.jpg)

*Artist: Nethermost Majesty
*Album: Acuitas [ep]
*Year: 2015
*Genre: Black Metal
*Country: United States (IMG:http://metalarea.org/forum/style_images/flags/United%20States.png)
*Format: mp3@CBR320kbps
*Size: 54MB

Tracklist:
1.The Witness 01:31
2.Pestifer 04:33
3.Hosanna! 07:06
4.God's Poison 06:37
5.Tsalmavet 03:34
******************************
Total playing time: 23:21



Technical info
(IMG:http://metalarea.org/images/spectrogram/2018_Jun/4a4a7de68645ba0fb97e4391e9e5de4a.png)
Input File: 02 Pestifer.mp3
Channels : 2
Sample Rate : 44100
Precision : 16-bit
Duration : 00:04:33.92 = 12079960 samples = 20544.1 CDDA sectors
File Size : 11.1M
Bit Rate : 325k
Sample Encoding: MPEG audio (layer I, II or III)
Comments :
Title=Pestifer
Artist=Nethermost Majesty
Album=Acuitas EP
Tracknumber=2
Year=2015
Genre=Black Metal



Register


Go to the top of the page
  Insert nick Quick quote
+Quote Post
 
Start new topic
Replies (1 - 2)
post Jun 14 2018, 07:48:37
Post #2

Аполітичний
**************
Group: Металариец
Posts: 5,189
Releases: 143
From: Тимчасово окупована територія - Юзівка
On Forums: 10 years 1 month
Thanks: 5403 time(s)
Ukraine


Облога симпотная.
Go to the top of the page
  Insert nick Quick quote
+Quote Post
post Jun 15 2018, 08:22:24
Post #3

Satan bless you!
**************
Group: Металариец
Posts: 3,252
Releases: 63
From: Москва
On Forums: 10 years 2 months
Thanks: 2804 time(s)
Russian Federation


Хрень какая-то..двое из прогрессив дэт комманды...в общем все ясно..
Go to the top of the page
  Insert nick Quick quote
+Quote Post

Reply to this topicStart new topic
2 User(s) are reading this topic (2 Guests and 0 Anonymous Users)
0 Members:

 



- Lo-Fi Version Support form
Copyrights and abuse reports form
Time is now: 24th September 2018 - 20:08:28