Welcome Guest ( Log In | Register )

> Violent Definition - Life Sentence (2018), Old School Thrash Metal
post Jun 14 2018, 01:48:45
Post #1
BAN
Banned till
Oct 20 2018, 09:33:06



(IMG:http://metalarea.org/images/audiocovers/2018_Jun/acov_tid307116_thumb.jpg)

*Artist: Violent Definition
*Album: Life Sentence
*Year: 2018
*Genre: Old School Thrash Metal
*Country: Greece (IMG:http://metalarea.org/forum/style_images/flags/Greece.png)
*Format: mp3@CBR320kbps
*Size: 87MB

Tracklist:
1. Lethal Presence 03:36
2. Workaholik 02:42
3. Distorted Life 03:15
4. Slaves of Obsession 03:10
5. Uncertain Justice 02:47
6. M.D.S. (Modern Day Society) 03:11
7. Life Sentence 02:46
8. Ravenous Revenge 03:36
9. Violent Strain 02:24
10. Insane 03:06
11. So Many Lies 03:43
12. Consumed 03:23
******************************
Total playing time: 37:39




Extended info
Nick P. - Guitars/Bass
IronBeast - Vocals
Dimitris C. - Drums


Technical info
(IMG:http://metalarea.org/images/spectrogram/2018_Jun/d1a886ae7bec2818d170322b922ebbb8.png)
Input File: 02. Workaholik.mp3
Channels : 2
Sample Rate : 44100
Precision : 16-bit
Duration : 00:00:00.16 = 7144 samples = 12.1497 CDDA sectors
File Size : 6.65M
Bit Rate : 328M
Sample Encoding: MPEG audio (layer I, II or III)
Comments :
Title=Workaholik
Artist=Violent Definition
Album=Life Sentence
Tracknumber=2/12
Year=2018-18-20
Discnumber=1/1



Register


Go to the top of the page
  Insert nick Quick quote
+Quote Post
 
Start new topic
Replies (1 - 10)
post Jun 14 2018, 02:51:49
Post #2
BAN
Banned till
Oct 20 2018, 09:33:06



Register


Go to the top of the page
  Insert nick Quick quote
+Quote Post
post Jun 14 2018, 06:15:17
Post #3

hearer & reader
**************
Group: Металариец
Posts: 6,967
Releases: 89
From: Moscow
On Forums: 11 years 1 month
Thanks: 6691 time(s)
Russian Federation


Идеальный спектр!
Go to the top of the page
  Insert nick Quick quote
+Quote Post
post Jun 14 2018, 07:49:38
Post #4

Аполітичний
**************
Group: Металариец
Posts: 5,209
Releases: 143
From: Тимчасово окупована територія - Юзівка
On Forums: 10 years 1 month
Thanks: 5430 time(s)
Ukraine


ЦИТАТА(AHBAnep @ Jun 14 2018, 08:15:17) *
Идеальный спектр!


Ага, не придраться (IMG:style_emoticons/default/1488.gif)
Хорошая олда, только вокал не оптимальный.


Thanks:
(1) Andrew,
Go to the top of the page
  Insert nick Quick quote
+Quote Post
post Jun 14 2018, 08:00:06
Post #5

Наливай!
**************
Group: Металариец
Posts: 5,112
Releases: 27
From: Москва-Бибирево
On Forums: 10 years 7 months
Thanks: 2404 time(s)
Russian Federation


ЦИТАТА(neoatheist @ Jun 14 2018, 09:49:38) *
Ага, не придраться (IMG:style_emoticons/default/1488.gif)


Идеально подошел бы Блэку (IMG:style_emoticons/default/crazy.gif)
Go to the top of the page
  Insert nick Quick quote
+Quote Post
post Jun 14 2018, 08:12:54
Post #6

South Of Heaven /адепт ВУДУ
**************
Group: Металариец
Posts: 13,054
Releases: 7
From: Санкт-Петербург
On Forums: 8 years 6 months
Thanks: 4737 time(s)
Russian Federation


ЦИТАТА(AHBAnep @ Jun 14 2018, 08:15:17) *
Идеальный спектр!

Драка негров ночью (с)
Go to the top of the page
  Insert nick Quick quote
+Quote Post
post Jun 14 2018, 08:30:39
Post #7
BAN
Banned till
Oct 23 2018, 12:27:08



Отличная обложка, в духе благословенных 80-х, вообще то, да!
Go to the top of the page
  Insert nick Quick quote
+Quote Post
post Jun 14 2018, 11:13:21
Post #8

Правь статус, ####!111
**************
Group: Металариец
Posts: 5,214
Releases: 0
From: Primorye.ru
On Forums: 7 years 6 months
Thanks: 1031 time(s)
Russian Federation


Аналитикам спектральных анализов посвящается (IMG:style_emoticons/default/15.gif) Альбом (IMG:style_emoticons/default/metaler.gif)
Go to the top of the page
  Insert nick Quick quote
+Quote Post
post Jun 14 2018, 16:46:14
Post #9

...
Group Icon
Group: S-moderation team
Posts: 7,172
Releases: 1286
On Forums: 7 years 7 months
Thanks: 35235 time(s)
Croatia




Thanks:
Go to the top of the page
  Insert nick Quick quote
+Quote Post
post Jun 15 2018, 07:23:20
Post #10

Маньяк
**********
Group: Металариец
Posts: 1,442
Releases: 0
From: Dnipro
On Forums: 10 years 3 months
Thanks: 388 time(s)
Ukraine


Что спектр, что музон.
Go to the top of the page
  Insert nick Quick quote
+Quote Post
post Jun 27 2018, 04:56:06
Post #11

Маньяк
**********
Group: Металариец
Posts: 1,301
Releases: 5
From: Нью-Васюки
On Forums: 12 years 4 months
Thanks: 373 time(s)
Russian Federation


Побольше бы такой музыки


Go to the top of the page
  Insert nick Quick quote
+Quote Post

Reply to this topicStart new topic
1 User(s) are reading this topic (1 Guests and 0 Anonymous Users)
0 Members:

 



- Lo-Fi Version Support form
Copyrights and abuse reports form
Time is now: 18th October 2018 - 10:13:56