Welcome Guest ( Log In | Register )

> Releases Upload / Добавление релизов

Добавить релиз тут / Click here to add release
Рекомендованные обменники / Recommended file shares

 
Reply to this topicStart new topic
> Kehrä - Promo 2018 [demo] (2018), Folk/Black Metal
post Jun 14 2018, 03:48:17
Post #1

Правь статус, ####!111
**************
Group: Металариец
Posts: 3,227
Releases: 589
From: Brazil
On Forums: 6 years 4 months
Thanks: 23889 time(s)
Brazil


(IMG:https://metalarea.org/images/audiocovers/2018_Jun/acov_tid307119_thumb.jpg)

*Artist: Kehrä
*Album: Promo 2018 [demo]
*Year: 2018
*Genre: Folk/Black Metal
*Country: Finland (IMG:https://metalarea.org/forum/style_images/flags/Finland.png)
*Format: mp3@CBR320kbps
*Size: 48MB

Tracklist:
1. Polku 04:13
2. Metsä 05:55
3. Kangas 03:28
4. Kutsu 06:53
******************************
Total playing time: 20:29



Extended info
Tracklist in English:
1. The Path
2. The Forest
3. Canvas
4. The Summoning


Technical info
(IMG:https://metalarea.org/images/spectrogram/2018_Jun/5dd3732f2893a1ee924b571ff2e4a877.png)
Input File: 02 Metsä.mp3
Channels : 2
Sample Rate : 44100
Precision : 16-bit
Duration : 00:05:55.09 = 15659425 samples = 26631.7 CDDA sectors
File Size : 14.2M
Bit Rate : 320k
Sample Encoding: MPEG audio (layer I, II or III)
Comments :
Title=Metsä
Artist=Kehrä
Album=Promo 2018
Tracknumber=2
Year=2018



Register


Go to the top of the page
  Insert nick Quick quote
+Quote Post

Reply to this topicStart new topic
1 User(s) are reading this topic (1 Guests and 0 Anonymous Users)
0 Members:

 



- Lo-Fi Version Support form
Copyrights and abuse reports form
Time is now: 23rd June 2018 - 08:56:34