Welcome Guest ( Log In | Register )

> Sepulcro - Vengeance (2018), Thrash Metal (D10)
post Jun 14 2018, 06:54:52
Post #1

Правь статус, ####!111
**************
Group: Металариец
Posts: 13,362
Releases: 9421
From: Г.Харьков
On Forums: 6 years 1 month
Thanks: 153746 time(s)
Unknown


(IMG:http://metalarea.org/images/audiocovers/2018_Jun/acov_tid307126_thumb.jpg)

*Artist: Sepulcro
*Album: Vengeance
*Year: 2018
*Genre: Thrash Metal
*Country: Peru (IMG:http://metalarea.org/forum/style_images/flags/Peru.png)
*Format: mp3@CBR192kbps
*Size: 73MB

Tracklist:
1. Vengeance
2. Crematorio
3. Profecia
4. La Prueba (De Fuego)
5. Master of War
6. Vestigios del Futuro
7. Power's Trace
8. Sepulcro
9. Escena de la Realidad
10. Final Sin
******************************
Total playing time: 53:11



Extended info
В Лоу
Miguel Hernández (Guitars, Vocals (choirs))
Miguel Huamán (Vocals, Guitars)
César Morán (Bass)
Renato Bar (Drums)


Technical info
(IMG:http://metalarea.org/images/spectrogram/2018_Jun/fe65fa92952c2f6f4e0d45fe3abd8bc4.png)
Input File: 03 - Profecia.mp3
Channels : 2
Sample Rate : 44100
Precision : 16-bit
Duration : 00:05:48.24 = 15357340 samples = 26117.9 CDDA sectors
File Size : 8.36M
Bit Rate : 192k
Sample Encoding: MPEG audio (layer I, II or III)
Comments :
Title=Profecia
Artist=Sepulcro
Album=Vengeance
Tracknumber=3
Year=2018
Genre=Thrash Metal



Register


Go to the top of the page
  Insert nick Quick quote
+Quote Post
 
Start new topic
Replies (1 - 4)
post Jun 17 2018, 15:21:55
Post #2

South Of Heaven /адепт ВУДУ
**************
Group: Металариец
Posts: 12,533
Releases: 7
From: Санкт-Петербург
On Forums: 8 years 2 months
Thanks: 4503 time(s)
Russian Federation


Пацаны к успеху дебютнику шли 31 год (IMG:style_emoticons/default/crazy.gif)

А по превью нормально так, забираю!
Go to the top of the page
  Insert nick Quick quote
+Quote Post
post Jun 17 2018, 22:32:39
Post #3

MDM-Thrash Metal
**************
Group: Металариец
Posts: 6,801
Releases: 412
From: Одесса
On Forums: 10 years 10 months
Thanks: 12958 time(s)
Ukraine


ЦИТАТА(avkruchinin @ Jun 17 2018, 17:21:55) *
Пацаны

Да уже дяденьки за 50!
Go to the top of the page
  Insert nick Quick quote
+Quote Post
post Jun 18 2018, 07:29:23
Post #4

South Of Heaven /адепт ВУДУ
**************
Group: Металариец
Posts: 12,533
Releases: 7
From: Санкт-Петербург
On Forums: 8 years 2 months
Thanks: 4503 time(s)
Russian Federation


ЦИТАТА(Andrew @ Jun 18 2018, 00:32:39) *
Да уже дяденьки за 50!

Так пацанами были ещё, когда сию группу организовали.
Go to the top of the page
  Insert nick Quick quote
+Quote Post
post Jun 18 2018, 08:25:04
Post #5

Правь статус, ####!111
**************
Group: Металариец
Posts: 32,181
Releases: 486
On Forums: 9 years 2 weeks
Thanks: 24659 time(s)
Russian Federation


ЦИТАТА(Andrew @ Jun 18 2018, 00:32:39) *
Да уже дяденьки за 50!


Все мы дети изрядного возраста (с) Андрей Владимирович Кручинин - Наполеон.

А альбом хорош, знатно жгут! (IMG:style_emoticons/default/9.gif)


Thanks:
Go to the top of the page
  Insert nick Quick quote
+Quote Post

Reply to this topicStart new topic
2 User(s) are reading this topic (2 Guests and 0 Anonymous Users)
0 Members:

 



- Lo-Fi Version Support form
Copyrights and abuse reports form
Time is now: 21st June 2018 - 09:25:08