Welcome Guest ( Log In | Register )

> Perky Macabre - Spontaneous Doorways To Hell [ep] (2018), Grindcore (D51)
post Jun 14 2018, 13:08:31
Post #1

Serial Uploader
Group Icon
Group: V.I.P
Posts: 33,135
Releases: 31419
From: Lithuania
On Forums: 10 years 4 months
Thanks: 359276 time(s)
Lithuania


(IMG:https://metalarea.org/images/audiocovers/2018_Jun/acov_tid307144_thumb.jpg)

*Artist: Perky Macabre
*Album: Spontaneous Doorways To Hell [ep]
*Year: 2018
*Genre: Grindcore
*Country: United States (IMG:https://metalarea.org/forum/style_images/flags/United%20States.png)
*Format: mp3@VBR228kbps
*Size: 3MB

Tracklist:
01. Naked In A Dream 00:19
02. Scrying 00:50
03. Guillotine 00:36
04. Welcome Death 00:27
******************************
Total playing time: 2:12



Technical info
(IMG:https://metalarea.org/images/spectrogram/2018_Jun/6af3ac32cc73dfa8459e64d1a69ccc9d.png)
Input File: 02. Scrying.mp3
Channels : 2
Sample Rate : 44100
Precision : 16-bit
Duration : 00:00:50.05 = 2207205 samples = 3753.75 CDDA sectors
File Size : 1.41M
Bit Rate : 226k
Sample Encoding: MPEG audio (layer I, II or III)
Comments :
Title=Scrying
Artist=Perky Macabre
Album=Spontaneous Doorways To Hell
Tracknumber=2
Year=2018



Register


Thanks:
(1) Rosen,
Go to the top of the page
  Insert nick Quick quote
+Quote Post
 
Start new topic
Replies (1 - 2)
post Jun 14 2018, 13:18:46
Post #2
BAN
Banned till
Oct 23 2018, 12:27:08



О, наряду с Дос Брудос и Дед Эс Антропофагус и этот пупс продолжает стахановскими темпами отливать говно (IMG:style_emoticons/default/25.gif)

ТанкГовноцид и Захарка похоже уже давно забросили свои творения и им на смену пришли другие оруженосцы.


Thanks:
(1) krotovich,
Go to the top of the page
  Insert nick Quick quote
+Quote Post
post Jun 14 2018, 18:40:49
Post #3

Правь статус, ####!111
**************
Group: Металариец
Posts: 2,670
Releases: 0
From: Одесса
On Forums: 10 years 7 months
Thanks: 1060 time(s)
Ukraine


It must be tiring to upload this band craps.


Thanks:
(1) kessler,
Go to the top of the page
  Insert nick Quick quote
+Quote Post

Reply to this topicStart new topic
1 User(s) are reading this topic (1 Guests and 0 Anonymous Users)
0 Members:

 



- Lo-Fi Version Support form
Copyrights and abuse reports form
Time is now: 20th October 2018 - 03:59:37