Welcome Guest ( Log In | Register )

> King Heavy - Guardian Demons (2018), Epic Doom Metal
post Jun 14 2018, 14:26:00
Post #1

Правь статус, ####!111
**************
Group: Металариец
Posts: 14,310
Releases: 9925
From: Г.Харьков
On Forums: 6 years 4 months
Thanks: 162837 time(s)
Unknown


(IMG:http://metalarea.org/images/audiocovers/2018_Jun/acov_tid307149_thumb.jpg)

*Artist: King Heavy
*Album: Guardian Demons
*Year: 2018
*Genre: Epic Doom Metal
*Country: Chile (IMG:http://metalarea.org/forum/style_images/flags/Chile.png)
*Format: mp3@CBR320kbps
*Size: 101MB

Tracklist:
1. Guardian Demons 07:11
2. (Death is but an extreme form of) Narcosis 06:58
3. Doom Shall Rise 06:58
4. Cult of the Cloven Hoof 05:19
5. Comy my Disciples 10:14
6. As in a Nightmare 06:39
******************************
Total playing time: 43:19




Extended info
Daniel Bass
Matias Guitars
Luce Vocals
Miguel Drums


Technical info
(IMG:http://metalarea.org/images/spectrogram/2018_Jun/0a3be641bc62bee115bc4b7db6106604.png)
Input File: 03 Doom Shall Rise.mp3
Channels : 2
Sample Rate : 44100
Precision : 16-bit
Duration : 00:06:58.76 = 18467096 samples = 31406.6 CDDA sectors
File Size : 17.2M
Bit Rate : 328k
Sample Encoding: MPEG audio (layer I, II or III)
Comments :
Title=Doom Shall Rise
Artist=King Heavy
Album=Guardian Demons
Tracknumber=03/06
Year=2018
Genre=Metal
Discnumber=1/1



Register


Go to the top of the page
  Insert nick Quick quote
+Quote Post
 
Start new topic
Replies (1 - 1)
post Jun 15 2018, 09:00:09
Post #2

Правь статус, ####!111
**************
Group: Металариец
Posts: 14,310
Releases: 9925
From: Г.Харьков
On Forums: 6 years 4 months
Thanks: 162837 time(s)
Unknown


Register


Thanks:
(1) marilin,
Go to the top of the page
  Insert nick Quick quote
+Quote Post

Reply to this topicStart new topic
1 User(s) are reading this topic (1 Guests and 0 Anonymous Users)
0 Members:

 



- Lo-Fi Version Support form
Copyrights and abuse reports form
Time is now: 23rd September 2018 - 17:14:46