Welcome Guest ( Log In | Register )

> Releases Upload / Добавление релизов

Добавить релиз тут / Click here to add release
Рекомендованные обменники / Recommended file shares

> Drowned - 7th (2018), Thrash/Death Metal (D)
post Jun 14 2018, 16:48:57
Post #1

Правь статус, ####!111
**************
Group: Металариец
Posts: 13,381
Releases: 9428
From: Г.Харьков
On Forums: 6 years 1 month
Thanks: 153941 time(s)
Unknown


(IMG:http://metalarea.org/images/audiocovers/2018_Jun/acov_tid307156_thumb.jpg)

*Artist: Drowned
*Album: 7th
*Year: 2018
*Genre: Thrash/Death Metal
*Country: Brazil (IMG:http://metalarea.org/forum/style_images/flags/Brazil.png)
*Format: mp3@CBR320kbps
*Size: 98MB

Tracklist:
1. The Bitter Art of Detestation 05:10
2. Rage Before Some Hope 04:04
3. Toothless Messiah 04:41
4. Murder, Sex, Hate, and More... 03:23
5. Violent March of Chaos 04:20
6. Damaged Wood Coffin 05:14
7. Epidemic and God Selfishness 03:44
8. Elitist Heaven Ruled by Devil 03:11
9. Timebomb Conscience 03:38
10. KRH317 04:37
11. Ministry of National Inquisition 04:25
******************************
Total playing time: 46:27



Extended info
Beto Loureiro Drums
See also: ex-Walpurgis Night
Fernando Lima Vocals (1994-present)
Marcos Amorim Guitars (1998-present)
Rafael Porto Guitars (2000-2004), Bass (2011-present)
See also: Vorticis
Kerley Ribeiro Guitars (2004-present)


Technical info
(IMG:http://metalarea.org/images/spectrogram/2018_Jun/14fa8765656d82d5ac1a7388784e0f95.png)
Input File: 02. Rage Before Some Hope.mp3
Channels : 2
Sample Rate : 44100
Precision : 16-bit
Duration : 00:04:03.51 = 10738791 samples = 18263.2 CDDA sectors
File Size : 9.81M
Bit Rate : 322k
Sample Encoding: MPEG audio (layer I, II or III)
Comments :
Title=Rage Before Some Hope
Artist=Drowned
Album=7th
Tracknumber=02
Year=2018
Genre=Метал
Discnumber=1



Register


Go to the top of the page
  Insert nick Quick quote
+Quote Post
 
Start new topic
Replies (1 - 1)
post Jun 15 2018, 08:51:47
Post #2

Правь статус, ####!111
**************
Group: Металариец
Posts: 13,381
Releases: 9428
From: Г.Харьков
On Forums: 6 years 1 month
Thanks: 153941 time(s)
Unknown


Register


Thanks:
Go to the top of the page
  Insert nick Quick quote
+Quote Post

Reply to this topicStart new topic
1 User(s) are reading this topic (1 Guests and 0 Anonymous Users)
0 Members:

 



- Lo-Fi Version Support form
Copyrights and abuse reports form
Time is now: 23rd June 2018 - 09:07:54