Welcome Guest ( Log In | Register )

> Blodshämnd - Premature Obituary (2017), Old School Death/Thrash Metal
post Jun 15 2018, 04:09:34
Post #1

Правь статус, ####!111
**************
Group: Металариец
Posts: 20,336
Releases: 13862
From: Г.Харьков
On Forums: 7 years 8 months
Thanks: 243040 time(s)
Unknown


(IMG:http://metalarea.org/images/audiocovers/2018_Jun/acov_tid307166_thumb.jpg)

*Artist: Blodshämnd
*Album: Premature Obituary
*Year: 2017
*Genre: Old School Death/Thrash Metal
*Country: Sweden (IMG:http://metalarea.org/forum/style_images/flags/Sweden.png)
*Format: mp3@CBR320kbps
*Size: 95MB

Tracklist:
1. Eternal Abyss 04:51
2. Ride with the Death 04:23
3. Failed Evolution 04:29
4. Internal Downfall 04:53
5. Fatal Destiny 04:14
6. Reckoning Day 05:01
7. Consuming World 04:08
8. Forsaken Mankind 04:43
******************************
Total playing time: 36:42

(IMG:http://metalarea.org/images/youtube.png)


Extended info
CD-Rip
S. Edlund Bass
R. Sandström Drums
A. Lindberg Guitars (rhythm)
I. Ölström Vocals, Guitars (lead)


Technical info
(IMG:http://metalarea.org/images/spectrogram/2018_Jun/832565df7b09ab9289317112c6f333b2.png)
Input File: 02 Ride With The Death.mp3
Channels : 2
Sample Rate : 44100
Precision : 16-bit
Duration : 00:04:23.20 = 11607120 samples = 19740 CDDA sectors
File Size : 10.5M
Bit Rate : 320k
Sample Encoding: MPEG audio (layer I, II or III)
Comments :
Title=Ride With The Death
Artist=Blodshämnd
Album=Premature Obituary
Tracknumber=2
Year=2017
Genre=Death Metal



Register


Go to the top of the page
  Insert nick Quick quote
+Quote Post
 
Start new topic
Replies (1 - 8)
post Jun 15 2018, 08:17:33
Post #2

Правь статус, ####!111
**************
Group: Металариец
Posts: 20,336
Releases: 13862
From: Г.Харьков
On Forums: 7 years 8 months
Thanks: 243040 time(s)
Unknown


Register


Go to the top of the page
  Insert nick Quick quote
+Quote Post
post Jun 15 2018, 10:52:53
Post #3

Правь статус, ####!111
**************
Group: Металариец
Posts: 2,819
Releases: 8
From: Dnipro
On Forums: 11 years 6 months
Thanks: 891 time(s)
Ukraine


Очень не плохо как для Old School Death/Thrash Metal


Thanks:
(1) Foneg,
Go to the top of the page
  Insert nick Quick quote
+Quote Post
post Jun 15 2018, 15:46:28
Post #4

MDM-Thrash Metal
**************
Group: Металариец
Posts: 9,210
Releases: 767
From: Одесса
On Forums: 12 years 5 months
Thanks: 20693 time(s)
Ukraine


Сабж хорош! Но я бы не сказал, что прям таки олд скул.

На вечерней пробежке 2 раза прогнал альбом - отменный материал! Крепкая работа, без перепадов и провалов, ровненький от первого и до последнего трека. В ТОР года однозначно. СУПЕР!


Go to the top of the page
  Insert nick Quick quote
+Quote Post
post Jun 18 2018, 09:46:50
Post #5

Dr.
**************
Group: Металариец
Posts: 5,319
Releases: 0
From: Primorye.ru
On Forums: 8 years 10 months
Thanks: 1090 time(s)
Russian Federation



Слушается альбом на одном дыхании. А что вы хотели, это чисто Шведы, умеют. Благодарю.


Thanks:
Go to the top of the page
  Insert nick Quick quote
+Quote Post
post Jul 13 2018, 21:04:27
Post #6

MDM-Thrash Metal
**************
Group: Металариец
Posts: 9,210
Releases: 767
From: Одесса
On Forums: 12 years 5 months
Thanks: 20693 time(s)
Ukraine


...Месяц наслаждаюсь альбомом и с каждым прослушиванием заходит все больше и больше!!! Отличный материал.


Thanks:
Go to the top of the page
  Insert nick Quick quote
+Quote Post
post Aug 7 2018, 12:23:30
Post #7

Schuldinerist
**************
Group: Металариец
Posts: 10,467
Releases: 33
From:
On Forums: 12 years 9 months
Thanks: 6616 time(s)
Russian Federation


Отличный олдскул в ощутимым закосом влиянием раннего Шульдинера.
9-/10


Thanks:
Go to the top of the page
  Insert nick Quick quote
+Quote Post
post Dec 8 2018, 21:15:46
Post #8

MDM-Thrash Metal
**************
Group: Металариец
Posts: 9,210
Releases: 767
From: Одесса
On Forums: 12 years 5 months
Thanks: 20693 time(s)
Ukraine


Не, альбом просто шикарнючий!!! Вот слушаешь и хочется. Прекраснейшая работа в которой все на своих местах и музыка и вокал и сочетание друг с другом.
СУПЕР АЛЬБОМ! (IMG:style_emoticons/default/20.gif)


Thanks:
Go to the top of the page
  Insert nick Quick quote
+Quote Post
post Feb 27 2019, 21:47:28
Post #9

MDM-Thrash Metal
**************
Group: Металариец
Posts: 9,210
Releases: 767
From: Одесса
On Forums: 12 years 5 months
Thanks: 20693 time(s)
Ukraine


Очень обидно, но команда прекратила свое существование. (IMG:style_emoticons/default/6.gif) а ведь дебют был впечатляющим!

Register
Go to the top of the page
  Insert nick Quick quote
+Quote Post

Reply to this topicStart new topic
1 User(s) are reading this topic (1 Guests and 0 Anonymous Users)
0 Members:

 



- Lo-Fi Version Support form
Copyrights and abuse reports form
Time is now: 27th January 2020 - 03:24:52