Welcome Guest ( Log In | Register )

> Releases Upload / Добавление релизов

Добавить релиз тут / Click here to add release
Рекомендованные обменники / Recommended file shares

 
Reply to this topicStart new topic
> Sagotorium - Primary Miscarriage (2013), Brutal Death Metal/Goregrind (D6)
post Jun 15 2018, 11:13:19
Post #1

Serial Uploader
Group Icon
Group: V.I.P
Posts: 32,736
Releases: 31034
From: Lithuania
On Forums: 10 years 2 weeks
Thanks: 355749 time(s)
Lithuania


(IMG:https://metalarea.org/images/audiocovers/2018_Jun/acov_tid307182_thumb.jpg)

*Artist: Sagotorium
*Album: Primary Miscarriage
*Year: 2013
*Genre: Brutal Death Metal/Goregrind
*Country: Belarus (IMG:https://metalarea.org/forum/style_images/flags/Belarus.png)
*Format: mp3@CBR320kbps
*Size: 46MB

Tracklist:
01. CUMыс 02:00
02. Dismembered Trunk 01:45
03. Fried Chiken Genocide 02:27
04. Gore-O-Scope 01:34
05. Maggots Of Human Scum 01:15
06. Torsion Graves 01:11
07. Meatslap 01:31
08. SCATy Kitty 01:22
09. Cонг Фор Ждан 01:26
10. Вуткi I Качкi (Intra Muros Cover) 02:20
11. The Day The Dead Walked (Six Feet Under Cover) 02:12
******************************
Total playing time: 19:03



Preview 3

(IMG:https://metalarea.org/images/youtube.png)

Technical info
(IMG:https://metalarea.org/images/spectrogram/2018_Jun/15c371dbc5dddb9713bc1c695d5ae881.png)
Input File: 06. Torsion Graves.mp3
Channels : 2
Sample Rate : 44100
Precision : 16-bit
Duration : 00:01:13.05 = 3221285 samples = 5478.38 CDDA sectors
File Size : 3.13M
Bit Rate : 343k
Sample Encoding: MPEG audio (layer I, II or III)
Comments :
Title=Torsion Graves
Artist=Sagotorium
Album=Primary Miscarriage (2013)
Tracknumber=6
Year=2013



Register


Go to the top of the page
  Insert nick Quick quote
+Quote Post

Reply to this topicStart new topic
1 User(s) are reading this topic (1 Guests and 0 Anonymous Users)
0 Members:

 



- Lo-Fi Version Support form
Copyrights and abuse reports form
Time is now: 23rd June 2018 - 09:02:12