Welcome Guest ( Log In | Register )

> Sickrites & Pestilentia - From The Temples Below [split] (2018), Black Metal | Black Metal (D)(D)
post Jun 15 2018, 11:37:10
Post #1

Detective Godzilla
Group Icon
Group: Moderation team
Posts: 2,583
Releases: 187
On Forums: 7 years 8 months
Thanks: 5617 time(s)
Russian Federation


(IMG:https://metalarea.org/images/audiocovers/2018_Jun/acov_tid307185_thumb.jpg)

*Artist: Sickrites & Pestilentia
*Album: From The Temples Below [split]
*Year: 2018
*Genre: Black Metal | Black Metal
*Country: Russian Federation (IMG:https://metalarea.org/forum/style_images/flags/Russian%20Federation.png) | Belarus (IMG:https://metalarea.org/forum/style_images/flags/Belarus.png)
*Format: mp3@CBR320kbps
*Size: 35MB

Tracklist:
Sickrites
01. Vhaaeghti 07:24
Pestilentia
02. Prophecies of Doom 07:06
******************************
Total playing time: 14:30



Extended info
Personal purchase


Technical info
(IMG:https://metalarea.org/images/spectrogram/2018_Jun/bb7bd189792aae91cb68f8244b847f0c.png)
Input File: 02. Pestilentia - Prophecies of Doom.mp3
Channels : 2
Sample Rate : 44100
Precision : 16-bit
Duration : 00:07:06.88 = 18825408 samples = 32016 CDDA sectors
File Size : 17.3M
Bit Rate : 324k
Sample Encoding: MPEG audio (layer I, II or III)
Comments :
Title=Prophecies of Doom
Artist=Pestilentia
Album=From the Temples Below
Tracknumber=2
Year=2018



Register


Go to the top of the page
  Insert nick Quick quote
+Quote Post
 
Start new topic
Replies (1 - 2)
post Jun 15 2018, 12:31:15
Post #2
BAN
Banned till
Oct 23 2018, 12:27:08



@320

Register


Go to the top of the page
  Insert nick Quick quote
+Quote Post
post Sep 17 2018, 16:35:24
Post #3

добрый мизантроп
***********
Group: Металариец
Posts: 1,505
Releases: 0
From: Минск
On Forums: 7 years 11 months
Thanks: 447 time(s)
Madagascar


Хренасе совпадение
Go to the top of the page
  Insert nick Quick quote
+Quote Post

Reply to this topicStart new topic
1 User(s) are reading this topic (1 Guests and 0 Anonymous Users)
0 Members:

 



- Lo-Fi Version Support form
Copyrights and abuse reports form
Time is now: 16th October 2018 - 06:38:04