Welcome Guest ( Log In | Register )

> И неформату есть предел.

Рэп/хип-хоп/шансон/поп удаляются. Для них есть свои порталы.

> NYIÞ & Old Burial Temple - Caput Mortum [split] (2018), Ritual Ambient | Drone
post Jun 15 2018, 17:05:38
Post #1

Маньяк
**********
Group: Металариец
Posts: 1,377
Releases: 1071
From: Prešov
On Forums: 4 years 5 months
Thanks: 24867 time(s)
Slovakia


(IMG:http://metalarea.org/images/audiocovers/2018_Jun/acov_tid307196_thumb.jpg)

*Artist: NYIÞ & Old Burial Temple
*Album: Caput Mortum [split]
*Year: 2018
*Genre: Ritual Ambient | Drone
*Country: Iceland (IMG:http://metalarea.org/forum/style_images/flags/Iceland.png) | Australia (IMG:http://metalarea.org/forum/style_images/flags/Australia.png)
*Format: mp3@VBR245kbps
*Size: 81MB

Tracklist:
NYIÞ:
1. Rót 9:10
2. Iða 8:40
Old Burial Temple:
3. Movement XIII 21:58
******************************
Total playing time: 39:48



Extended info
Signal Rex - SIGNAL56
Vinyl-rip


Technical info
(IMG:http://metalarea.org/images/spectrogram/2018_Jun/553b0c8f84112c56b2503e161793fbd8.png)
Input File: 01. NYIÞ - Rót.mp3
Channels : 2
Sample Rate : 44100
Precision : 16-bit
Duration : 00:09:09.43 = 24229995 samples = 41207.5 CDDA sectors
File Size : 18.1M
Bit Rate : 263k
Sample Encoding: MPEG audio (layer I, II or III)
Comments :
Title=RГіt
Artist=NYIГћ
Album=Caput Mortum
Tracknumber=01/03
Year=2018
Genre=Black Metal
Discnumber=1/1



Register


Go to the top of the page
  Insert nick Quick quote
+Quote Post
 
Start new topic
Replies (1 - 1)
post Jun 19 2018, 16:34:20
Post #2

Satan bless you!
**************
Group: Металариец
Posts: 3,250
Releases: 63
From: Москва
On Forums: 10 years 2 months
Thanks: 2803 time(s)
Russian Federation


Искал инфу про первую команду и на фб мне переводчик выдал в переводе с исландского

Ненавидьте их богом и святыми ангелами
такое полное исчезновение,
женат и до свидания
и вся защита и мудрость

я плакал)
Про вторую группу нашел, что Old, который здесь наяривает из Drohtnung


Go to the top of the page
  Insert nick Quick quote
+Quote Post

Reply to this topicStart new topic
1 User(s) are reading this topic (1 Guests and 0 Anonymous Users)
0 Members:

 



- Lo-Fi Version Support form
Copyrights and abuse reports form
Time is now: 22nd September 2018 - 01:15:04