Welcome Guest ( Log In | Register )

> И неформату есть предел.

Рэп/хип-хоп/шансон/поп удаляются. Для них есть свои порталы.

 
Reply to this topicStart new topic
> Ancient Crypt - Centuries Of Silent Slumber (2018), Dungeon Synth/Ambient
post Jun 16 2018, 01:02:35
Post #1

Правь статус, ####!616
**************
Group: Металариец
Posts: 4,398
Releases: 3004
From: 55°35’N 38°08’E
On Forums: 10 years 1 week
Thanks: 56218 time(s)
Unknown


(IMG:http://metalarea.org/images/audiocovers/2018_Jun/acov_tid307202_thumb.jpg)

*Artist: Ancient Crypt
*Album: Centuries Of Silent Slumber
*Year: 2018
*Genre: Dungeon Synth/Ambient
*Country: United States (IMG:http://metalarea.org/forum/style_images/flags/United%20States.png)
*Format: mp3@CBR320kbps
*Size: 97MB

Tracklist:
1.Aeons of Unending Night 09:02
2.Entombed Beneath Crumbling Mountains 07:21
3.Hidden in Sylvan Vastnesses 07:30
4.Buried Temple 09:24
5.Sunken Tomb 09:11
******************************
Total playing time: 42:28



Technical info
(IMG:http://metalarea.org/images/spectrogram/2018_Jun/4acbdefda326e49bc4d615127ea9c007.png)
Input File: 01 Aeons of Unending Night.mp3
Channels : 2
Sample Rate : 44100
Precision : 16-bit
Duration : 00:09:02.67 = 23931703 samples = 40700.2 CDDA sectors
File Size : 21.8M
Bit Rate : 322k
Sample Encoding: MPEG audio (layer I, II or III)
Comments :
Title=Aeons of Unending Night
Artist=Ancient Crypt
Album=Centuries of Silent Slumber
Tracknumber=1
Year=2018
Genre=Dungeon Synth



Register


Go to the top of the page
  Insert nick Quick quote
+Quote Post

Reply to this topicStart new topic
2 User(s) are reading this topic (2 Guests and 0 Anonymous Users)
0 Members:

 



- Lo-Fi Version Support form
Copyrights and abuse reports form
Time is now: 20th July 2018 - 11:45:08