Welcome Guest ( Log In | Register )

> Releases Upload / Добавление релизов

Добавить релиз тут / Click here to add release
Рекомендованные обменники / Recommended file shares

 
Reply to this topicStart new topic
> Pissblood - Pissblood (2018), Black Metal/Punk/D-beat
post Jun 16 2018, 17:19:19
Post #1

Правь статус, ####!616
**************
Group: Металариец
Posts: 4,398
Releases: 3004
From: 55°35’N 38°08’E
On Forums: 9 years 11 months
Thanks: 55879 time(s)
Unknown


(IMG:http://metalarea.org/images/audiocovers/2018_Jun/acov_tid307229_thumb.jpg)

*Artist: Pissblood
*Album: Pissblood
*Year: 2018
*Genre: Black Metal/Punk/D-beat
*Country: United States (IMG:http://metalarea.org/forum/style_images/flags/United%20States.png)
*Format: mp3@CBR320kbps
*Size: 49MB

Tracklist:
1.--- 01:48
2.Smashed Knees 03:52
3.Decimate / Crucify 01:34
4.Chains 03:28
5.Purged Blood 01:30
6.Acid Burn 02:21
7.Eliminated Life 03:54
8.Piss Fucking Blood 02:40
******************************
Total playing time: 21:07



Technical info
(IMG:http://metalarea.org/images/spectrogram/2018_Jun/2e5507069b156030369e1db1e2af3309.png)
Input File: 02 Smashed Knees.mp3
Channels : 2
Sample Rate : 44100
Precision : 16-bit
Duration : 00:03:52.44 = 10250428 samples = 17432.7 CDDA sectors
File Size : 9.48M
Bit Rate : 326k
Sample Encoding: MPEG audio (layer I, II or III)
Comments :
Title=Smashed Knees
Artist=Pissblood
Album=Pissblood
Tracknumber=2
Year=2018
Genre=Other



Register


Go to the top of the page
  Insert nick Quick quote
+Quote Post

Reply to this topicStart new topic
1 User(s) are reading this topic (1 Guests and 0 Anonymous Users)
0 Members:

 



- Lo-Fi Version Support form
Copyrights and abuse reports form
Time is now: 23rd June 2018 - 08:59:59