Welcome Guest ( Log In | Register )

> И неформату есть предел.

Рэп/хип-хоп/шансон/поп удаляются. Для них есть свои порталы.

> Banco Del Mutuo Soccorso - Darwin! (1972), Progressive Rock
post Jun 18 2018, 22:39:35
Post #1


*********
Group: Металариец
Posts: 971
Releases: 186
From: Подмосковье
On Forums: 8 years 11 months
Thanks: 2654 time(s)
Russian Federation


(IMG:https://metalarea.org/images/audiocovers/2018_Jun/acov_tid307308_thumb.jpg)

*Artist: Banco Del Mutuo Soccorso
*Album: Darwin!
*Year: 1972
*Genre: Progressive Rock
*Country: Italy (IMG:https://metalarea.org/forum/style_images/flags/Italy.png)
*Format: mp3@CBR320kbps
*Size: 105MB

Tracklist:
1. L'Evoluzione 13:59
2. La Conquista Della Posizione Eretta 08:42
3. Danza Dei Grandi Rettili 03:42
4. Cento Mani E Cento Occhi 05:22
5. 750,000 Anni Fa ... L'Amore? 05:38
6. Miserere Alla Storia 05:58
7. Ed Ora Io Domando Tempo Al Tempo Ed Egli Mi Risponde ... Non Ne Ho! 03:29
******************************
Total playing time: 46:50

(IMG:https://metalarea.org/images/youtube.png)

Extended info
Line-up / Musicians
- Francesco Di Giacomo / lead vocals
- Marcello Todaro / electric & acoustic guitars
- Vittorio Nocenzi / Hammond organ, Moog synthesizers, harpsichord, vocals
- Gianni Nocenzi / piano, E-flat clarinet
- Renato D'Angelo / bass, double bass
- Pier Luigi Calderoni / drums, timpani


Technical info
(IMG:https://metalarea.org/images/spectrogram/2018_Jun/60f290e40b74e471f8d0ca9c5974cfb5.png)
Input File: 02 La conquista della posizione eretta .mp3
Channels : 2
Sample Rate : 44100
Precision : 16-bit
Duration : 00:08:42.87 = 23058567 samples = 39215.2 CDDA sectors
File Size : 20.9M
Bit Rate : 320k
Sample Encoding: MPEG audio (layer I, II or III)
Comments :
Title=La conquista della posizione e
Artist=Banco del mutuo soccorso
Album=Darwin!
Tracknumber=2
Year=1972



Register


This post has been edited by Borderline1991: Jun 20 2018, 21:20:46


Thanks:
(1) marilin,
Go to the top of the page
  Insert nick Quick quote
+Quote Post
 
Start new topic
Replies (1 - 1)
post Jun 19 2018, 12:03:04
Post #2


*********
Group: Металариец
Posts: 971
Releases: 186
From: Подмосковье
On Forums: 8 years 11 months
Thanks: 2654 time(s)
Russian Federation


1991 version, 320
Register


This post has been edited by Borderline1991: Jun 20 2018, 21:21:59


Thanks:
(1) marilin,
Go to the top of the page
  Insert nick Quick quote
+Quote Post

Reply to this topicStart new topic
1 User(s) are reading this topic (1 Guests and 0 Anonymous Users)
0 Members:

 



- Lo-Fi Version Support form
Copyrights and abuse reports form
Time is now: 20th July 2018 - 11:44:09