Welcome Guest ( Log In | Register )

> И неформату есть предел.

Рэп/хип-хоп/шансон/поп удаляются. Для них есть свои порталы.

> Camel - Camel (1973), Progressive Rock
post Jun 18 2018, 23:21:10
Post #1


**********
Group: Металариец
Posts: 1,154
Releases: 186
From: Подмосковье
On Forums: 9 years 2 months
Thanks: 2830 time(s)
Russian Federation


(IMG:https://metalarea.org/images/audiocovers/2018_Jun/acov_tid307309_thumb.jpg)

*Artist: Camel
*Album: Camel
*Year: 1973
*Genre: Progressive Rock
*Country: United Kingdom (IMG:https://metalarea.org/forum/style_images/flags/United%20Kingdom.png)
*Format: mp3@CBR320kbps
*Size: 135MB

Tracklist:
1. Slow Yourself Down 04:45
2. Mystic Queen 05:40
3. Six Ate 06:05
4. Separation 03:57
5. Never Let Go 06:22
6. Curiosity 05:56
7. Arubaluba 06:29
8. Never Let Go (single version) 03:40
9. Homage To The God Of Light (Llive at Marquee Club 29-10-1974) 19:01
******************************
Total playing time: 1:01:55

(IMG:https://metalarea.org/images/youtube.png)

Extended info
Японский ремастер, 2009.
Line-up / Musicians
- Andy Latimer / guitar, vocals (1,4)
- Peter Bardens / organ, Mellotron, piano, VCS3 synth, vocals (5,8)
- Doug Ferguson / bass, vocal (2,6)
- Andy Ward / drums, percussion
With:
- Eddie / congas (1)
- Tony Cox / synth operator


Technical info
(IMG:https://metalarea.org/images/spectrogram/2018_Jun/1c3c892bca8076ebf9f3f40a78154c45.png)
Input File: 02. Mystic Queen.mp3
Channels : 2
Sample Rate : 44100
Precision : 16-bit
Duration : 00:05:37.86 = 14899670 samples = 25339.6 CDDA sectors
File Size : 13.5M
Bit Rate : 320k
Sample Encoding: MPEG audio (layer I, II or III)
Comments :
Title=Mystic Queen
Artist=Camel
Album=Camel
Tracknumber=2
Year=1973
Genre=92



Register


This post has been edited by Borderline1991: Jun 21 2018, 08:57:09


Go to the top of the page
  Insert nick Quick quote
+Quote Post
 
Start new topic
Replies (1 - 1)
post Jun 22 2018, 18:11:18
Post #2

Шесть Литров
******
Group: Металариец
Posts: 684
Releases: 0
From: Харьков
On Forums: 8 years 11 months
Thanks: 215 time(s)
Ukraine


Для дебюта просто шикарная работа, здесь еще весьма слышны отголоски хард-рока в отличие от последующих работ (это не минус, скорее просто особенность). "Never Let Go" - на все времена вещь. Крайне забавный видеоряд (особо аудитория доставляет (IMG:style_emoticons/default/1488.gif) ).
Go to the top of the page
  Insert nick Quick quote
+Quote Post

Reply to this topicStart new topic
1 User(s) are reading this topic (1 Guests and 0 Anonymous Users)
0 Members:

 



- Lo-Fi Version Support form
Copyrights and abuse reports form
Time is now: 20th September 2018 - 19:20:07