Welcome Guest ( Log In | Register )

> Releases Upload / Добавление релизов

Добавить релиз тут / Click here to add release
Рекомендованные обменники / Recommended file shares

> Thirst Planet - The Essence (2018), Stoner/Doom Metal
post Jun 19 2018, 11:31:04
Post #1

Правь статус, ####!111
**************
Group: Металариец
Posts: 13,381
Releases: 9428
From: Г.Харьков
On Forums: 6 years 1 month
Thanks: 153941 time(s)
Unknown


(IMG:http://metalarea.org/images/audiocovers/2018_Jun/acov_tid307314_thumb.jpg)

*Artist: Thirst Planet
*Album: The Essence
*Year: 2018
*Genre: Stoner/Doom Metal
*Country: Israel (IMG:http://metalarea.org/forum/style_images/flags/Israel.png)
*Format: mp3@CBR320kbps
*Size: 100MB

Tracklist:
1. Chain 05:24
2. Dry Tank 07:20
3. The Essence 06:40
4. Into the Unknown 02:35
5. Planet of Thirst 05:30
6. The Arrival 07:06
7. Across the Fathomless 00:45
8. Muddy Feet 07:05
******************************
Total playing time: 42:25




Extended info
Leonid Mickoliuk - Bass, Vocals
Anton Dor - Guitars & Synth (Track 7)
Boris Rozenberg - Drums
Guest on this album:
Bar Schmilovich - Samples, Synth & Mixing on tracks 4 & 7.


Technical info
(IMG:http://metalarea.org/images/spectrogram/2018_Jun/243cee3e7550e44e7b258ad523054d9c.png)
Input File: 02. Dry Tank.mp3
Channels : 2
Sample Rate : 44100
Precision : 16-bit
Duration : 00:07:20.32 = 19418156 samples = 33024.1 CDDA sectors
File Size : 17.9M
Bit Rate : 325k
Sample Encoding: MPEG audio (layer I, II or III)
Comments :
Title=Dry Tank
Artist=Thirst Planet
Album=The Essence
Tracknumber=2
Year=2018
Genre=Metal



Register


Go to the top of the page
  Insert nick Quick quote
+Quote Post
 
Start new topic
Replies (1 - 1)
post Jun 20 2018, 02:52:36
Post #2

Правь статус, ####!111
**************
Group: Металариец
Posts: 13,381
Releases: 9428
From: Г.Харьков
On Forums: 6 years 1 month
Thanks: 153941 time(s)
Unknown


Register


Thanks:
(1) Ostinato,
Go to the top of the page
  Insert nick Quick quote
+Quote Post

Reply to this topicStart new topic
1 User(s) are reading this topic (1 Guests and 0 Anonymous Users)
0 Members:

 



- Lo-Fi Version Support form
Copyrights and abuse reports form
Time is now: 23rd June 2018 - 08:53:34