Welcome Guest ( Log In | Register )

> Releases Upload / Добавление релизов

Добавить релиз тут / Click here to add release
Рекомендованные обменники / Recommended file shares

 
Reply to this topicStart new topic
> Embalmer - Nightmare Of Reality [demo] (1991), Death/Doom Metal (D)
post Jun 19 2018, 22:42:45
Post #1

Подвал
**************
Group: Металариец
Posts: 12,161
Releases: 6860
From: Far East (Khabarovsk)
On Forums: 9 years 4 months
Thanks: 62622 time(s)
Russian Federation


(IMG:http://metalarea.org/images/audiocovers/2018_Jun/acov_tid307336_thumb.jpg)

*Artist: Embalmer
*Album: Nightmare Of Reality [demo]
*Year: 1991
*Genre: Death/Doom Metal
*Country: Mexico (IMG:http://metalarea.org/forum/style_images/flags/Mexico.png)
*Format: mp3@CBR128kbps (IMG:http://metalarea.org/images/bit_low.gif)
*Size: 17MB

Tracklist:
1. Nighmare Of Reality 04:37
2. Evil Feast 06:36
3. Crush The Cenotaph (Asphyx cover) 03:56
4. Feast Of The Great Whore (Rotting Christ cover) 02:48
******************************
Total playing time: 17:57

Extended info
Rehearsal recording.


Technical info
(IMG:http://metalarea.org/images/spectrogram/2018_Jun/6b634fbebd677de5984caba50002511b.png)
Input File: 01-Nightmare of Reality.mp3
Channels : 2
Sample Rate : 44100
Precision : 16-bit
Duration : 00:04:37.98 = 12258742 samples = 20848.2 CDDA sectors
File Size : 4.88M
Bit Rate : 140k
Sample Encoding: MPEG audio (layer I, II or III)
Comments :
Title=Nightmare of Reality
Artist=Embalmer
Album=Nightmare of Reality (Demo)
Tracknumber=01
Year=1991
Genre=Doom Metal



Register


Go to the top of the page
  Insert nick Quick quote
+Quote Post

Reply to this topicStart new topic
1 User(s) are reading this topic (1 Guests and 0 Anonymous Users)
0 Members:

 



- Lo-Fi Version Support form
Copyrights and abuse reports form
Time is now: 23rd June 2018 - 08:52:52