Welcome Guest ( Log In | Register )

> И неформату есть предел.

Рэп/хип-хоп/шансон/поп удаляются. Для них есть свои порталы.

> W.E.T. - Earthrage (2018), Hard Rock (D4)
post Jun 19 2018, 23:27:46
Post #1

Шесть Литров
******
Group: Металариец
Posts: 678
Releases: 31
From: Vladivostok
On Forums: 9 years 1 week
Thanks: 968 time(s)
Russian Federation


(IMG:http://metalarea.org/images/audiocovers/2018_Jun/acov_tid307337_thumb.jpg)

*Artist: W.E.T.
*Album: Earthrage
*Year: 2018
*Genre: Hard Rock
*Country: Sweden (IMG:http://metalarea.org/forum/style_images/flags/Sweden.png)
*Format: mp3@CBR320kbps
*Size: 111MB

Tracklist:
01. Watch The Fire (05:04)
02. Burn (04:17)
03. Kings On Thunder Road (04:25)
04. Elegantly Wasted (02:57)
05. Urgent (03:45)
06. Dangerous (03:14)
07. Calling Out Your Name (04:01)
08. Heart Is On The Line (04:27)
09. I Don't Wanna Play That Game (03:37)
10. The Burning Pain Of Love (04:04)
11. The Never-Ending Retraceable Dream (03:52)
12. Elegantly Wasted (Acoustic Version) (Japan Bonus) (02:56)
******************************
Total playing time: 46:39

Preview 1

Extended info
Japanese Edition
Vocals – Jeff Scott Soto
Drums – Robban Bäck
Guitar, Bass, Keyboards, Vocals – Erik Mårtensson
Keyboards – Robert Säll


Technical info
(IMG:http://metalarea.org/images/spectrogram/2018_Jun/5cdaccbbfd8b6d9a3e1214932fe7f127.png)
Input File: 01 - Watch The Fire.mp3
Channels : 2
Sample Rate : 44100
Precision : 16-bit
Duration : 00:05:04.56 = 13430876 samples = 22841.6 CDDA sectors
File Size : 12.4M
Bit Rate : 327k
Sample Encoding: MPEG audio (layer I, II or III)
Comments :
Title=Watch The Fire
Artist=W.E.T.
Album=Earthrage (Japanese Edition)
Tracknumber=1/12
Year=2018
Discnumber=1/1



Register


Go to the top of the page
  Insert nick Quick quote
+Quote Post
 
Start new topic
Replies (1 - 2)
post Jun 20 2018, 10:08:45
Post #2

Правь статус, ####!111
**************
Group: Металариец
Posts: 5,229
Releases: 0
From: Primorye.ru
On Forums: 7 years 7 months
Thanks: 1037 time(s)
Russian Federation



&

Go to the top of the page
  Insert nick Quick quote
+Quote Post
post Aug 14 2018, 18:59:39
Post #3

i listen to black metal
**************
Group: Металариец
Posts: 2,210
Releases: 128
From: Москва-Лианозово
On Forums: 11 years 10 months
Thanks: 2023 time(s)
Russian Federation


ууух Спасибочки- как всегда в лучших традициях!!
Go to the top of the page
  Insert nick Quick quote
+Quote Post

Reply to this topicStart new topic
1 User(s) are reading this topic (1 Guests and 0 Anonymous Users)
0 Members:

 



- Lo-Fi Version Support form
Copyrights and abuse reports form
Time is now: 14th November 2018 - 08:28:02