Welcome Guest ( Log In | Register )

> Releases Upload / Добавление релизов

Добавить релиз тут / Click here to add release
Рекомендованные обменники / Recommended file shares

 
Reply to this topicStart new topic
> Haggus & Posthumous Regurgitation - Bizarre Fungating Ulceration [split] (2018), Grindcore/Goregrind | Goregrind (D11)
post Jun 20 2018, 12:41:46
Post #1

Serial Uploader
Group Icon
Group: V.I.P
Posts: 32,736
Releases: 31034
From: Lithuania
On Forums: 10 years 2 weeks
Thanks: 355761 time(s)
Lithuania


(IMG:https://metalarea.org/images/audiocovers/2018_Jun/acov_tid307352_thumb.jpg)

*Artist: Haggus & Posthumous Regurgitation
*Album: Bizarre Fungating Ulceration [split]
*Year: 2018
*Genre: Grindcore/Goregrind | Goregrind
*Country: United States (IMG:https://metalarea.org/forum/style_images/flags/United%20States.png) | United States (IMG:https://metalarea.org/forum/style_images/flags/United%20States.png)
*Format: mp3@CBR320kbps
*Size: 22MB

Tracklist:
Haggus:
01. An Untimely Obituary 02:29
02. Succumb To Filth: Pt II 02:21
Posthumous Regurgitation:
01. Malnutrition Induced Delusions Resulting In Cannibalism And Autophagia 01:43
02. Seepage Of Malodorous Effluvium 03:04
******************************
Total playing time: 9:37




(IMG:https://metalarea.org/images/youtube.png)

Technical info
(IMG:https://metalarea.org/images/spectrogram/2018_Jun/56b57308b8257e0c262913b0c5408d32.png)
Input File: 02. Succumb To Filth - Pt II.mp3
Channels : 2
Sample Rate : 44100
Precision : 16-bit
Duration : 00:02:21.02 = 6218806 samples = 10576.2 CDDA sectors
File Size : 5.73M
Bit Rate : 325k
Sample Encoding: MPEG audio (layer I, II or III)
Comments :
Title=Succumb To Filth : Pt II
Artist=HAGGUS
Album=Posthumous Regurgitation Split CS
Tracknumber=2
Year=2018



Register


Thanks:
Go to the top of the page
  Insert nick Quick quote
+Quote Post

Reply to this topicStart new topic
1 User(s) are reading this topic (1 Guests and 0 Anonymous Users)
0 Members:

 



- Lo-Fi Version Support form
Copyrights and abuse reports form
Time is now: 23rd June 2018 - 18:30:36