Welcome Guest ( Log In | Register )

 
Reply to this topicStart new topic
> The Wreckage - Unleashed (2018), Deathcore
post Jun 20 2018, 16:07:18
Post #1

Serial Uploader
Group Icon
Group: V.I.P
Posts: 33,121
Releases: 31406
From: Lithuania
On Forums: 10 years 4 months
Thanks: 359192 time(s)
Lithuania


(IMG:http://metalarea.org/images/audiocovers/2018_Jun/acov_tid307357_thumb.jpg)

*Artist: The Wreckage
*Album: Unleashed
*Year: 2018
*Genre: Deathcore
*Country: Singapore (IMG:http://metalarea.org/forum/style_images/flags/Singapore.png)
*Format: mp3@CBR320kbps
*Size: 80MB

Tracklist:
01. Purity
02. Soaked in Blood
03. Void Decadence
04. Sacrilege
05. Hecatomb
06. Imperium Illuminatus
07. Unleashed
08. Destructive Intent
09. Skinned and Hung up to Dry
10. Draugar
11. Requiem for the Forgotten
******************************
Total playing time: 35:00




Technical info
(IMG:http://metalarea.org/images/spectrogram/2018_Jun/11addfaa9341bdded30e5ee0ca6041e5.png)
Input File: 02. Soaked in Blood.mp3
Channels : 2
Sample Rate : 44100
Precision : 16-bit
Duration : 00:03:11.47 = 8443607 samples = 14359.9 CDDA sectors
File Size : 7.66M
Bit Rate : 320k
Sample Encoding: MPEG audio (layer I, II or III)
Comments :
Title=Soaked in Blood
Artist=The Wreckage
Album=Unleashed
Tracknumber=2/11
Year=2018



Register


Thanks:
Go to the top of the page
  Insert nick Quick quote
+Quote Post

Reply to this topicStart new topic
2 User(s) are reading this topic (2 Guests and 0 Anonymous Users)
0 Members:

 



- Lo-Fi Version Support form
Copyrights and abuse reports form
Time is now: 17th October 2018 - 04:31:00