Welcome Guest ( Log In | Register )

> И неформату есть предел.

Рэп/хип-хоп/шансон/поп удаляются. Для них есть свои порталы.

 
Reply to this topicStart new topic
> Various Artists - Sonic Seducer: Cold Hands Seduction 199 [best of/compilation] (2018), Various Gothic
post Jun 21 2018, 11:53:08
Post #1

Мегаманьяк
***********
Group: Металариец
Posts: 1,676
Releases: 463
On Forums: 10 years 5 months
Thanks: 6368 time(s)
Ireland


(IMG:https://metalarea.org/images/audiocovers/2018_Jun/acov_tid307376_thumb.jpg)

*Artist: Various Artists
*Album: Sonic Seducer: Cold Hands Seduction 199 [best of/compilation]
*Year: 2018
*Genre: Various Gothic
*Country: Many (IMG:https://metalarea.org/forum/style_images/flags/Many.png)
*Format: mp3@CBR320kbps
*Size: 173MB

Tracklist:
01. Dimmu Borgir - Council Of Wolves And Snakes
02. Omnia - Niiv's Cauldorn
03. Wisborg - Becoming Caligari
04. Selofan - Give Me A Reason
05. Metalwings - For All Beyond
06. Midas Fall - Evaporate
07. Florian Grey feat. Matteo VDiva Fabbiani - Relief
08. X-O-Planet - Voyagers
09. Unity One - Leave Me Confined
10. Monstergod - The Living Torch
11. Necrotekk - Dog With Two Bones
12. Aiboforcen - Life In The Valley Of Death
13. The Crimson Ghosts - Don't Follow
14. Taina - Schrei Nicht
15. Hellwerk - WTF
16. Hand In Waves - Echoes From Another Tract
17. Bruce Lamont - Goodbye Electric Sunday
******************************
Total playing time: 1:17:18

Technical info
(IMG:https://metalarea.org/images/spectrogram/2018_Jun/22002b52dffcf8c1454df5bebcacf6ed.png)
Input File: 09 Leave Me Confined.mp3
Channels : 2
Sample Rate : 44100
Precision : 16-bit
Duration : 00:04:04.05 = 10762693 samples = 18303.9 CDDA sectors
File Size : 9.89M
Bit Rate : 324k
Sample Encoding: MPEG audio (layer I, II or III)
Comments :
Title=Leave Me Confined
Artist=Unity One
Album=Cold Hands Seduction Vol. 199
Tracknumber=09
Year=2018
Genre=Gothic Rock/Industrial Metal/EBM



Register


Thanks:
Go to the top of the page
  Insert nick Quick quote
+Quote Post

Reply to this topicStart new topic
2 User(s) are reading this topic (2 Guests and 0 Anonymous Users)
0 Members:

 



- Lo-Fi Version Support form
Copyrights and abuse reports form
Time is now: 18th October 2018 - 01:48:28