Welcome Guest ( Log In | Register )

> И неформату есть предел.

Рэп/хип-хоп/шансон/поп удаляются. Для них есть свои порталы.

 
Reply to this topicStart new topic
> Various Artists - Sonic Seducer: Cold Hands Seduction 200 [best of/compilation] (2018), Various Gothic
post Jun 21 2018, 11:55:50
Post #1

Мегаманьяк
***********
Group: Металариец
Posts: 1,675
Releases: 463
On Forums: 10 years 4 months
Thanks: 6363 time(s)
Ireland


(IMG:https://metalarea.org/images/audiocovers/2018_Jun/acov_tid307377_thumb.jpg)

*Artist: Various Artists
*Album: Sonic Seducer: Cold Hands Seduction 200 [best of/compilation]
*Year: 2018
*Genre: Various Gothic
*Country: Many (IMG:https://metalarea.org/forum/style_images/flags/Many.png)
*Format: mp3@CBR320kbps
*Size: 148MB

Tracklist:
01. Mono Inc. - Welcome To Hell (Sonic Remix)
02. Elvellon - Born From Hope
03. Still Patient? - The Ghosts Of Tides
04. The Cascades - Station No. E
05. Delphine Coma - Moth Meets Flame
06. Ground Nero - Parasites
07. Negant - Anticiety
08. Philipp Münch - Mantra
09. System Noire - Dead Inside
10. Blue Images - Forgotten
11. Atomic Neon - Stranger Things
12. Blac Kolor - Nano Creator
13. Darkrad - Night Within Us
14. Musicum Theatrum - Der Verräter
******************************
Total playing time: 1:06:09

Technical info
(IMG:https://metalarea.org/images/spectrogram/2018_Jun/d7a56d2e5e13a8ee5c8b9493d3744fc1.png)
Input File: 07 Anticiety.mp3
Channels : 2
Sample Rate : 44100
Precision : 16-bit
Duration : 00:02:57.07 = 7808787 samples = 13280.2 CDDA sectors
File Size : 7.20M
Bit Rate : 325k
Sample Encoding: MPEG audio (layer I, II or III)
Comments :
Title=Anticiety
Artist=Negant
Album=Cold Hands Seduction Vol. 200
Tracknumber=07
Year=2018
Genre=Gothic Rock/EBM/Industrial



Register


Thanks:
Go to the top of the page
  Insert nick Quick quote
+Quote Post

Reply to this topicStart new topic
1 User(s) are reading this topic (1 Guests and 0 Anonymous Users)
0 Members:

 



- Lo-Fi Version Support form
Copyrights and abuse reports form
Time is now: 18th September 2018 - 20:36:34