Welcome Guest ( Log In | Register )

> И неформату есть предел.

Рэп/хип-хоп/шансон/поп удаляются. Для них есть свои порталы.

 
Reply to this topicStart new topic
> Banco Del Mutuo Soccorso - Io Sono Nato Libero (1973), Progressive Rock (D4)
post Jun 21 2018, 17:36:40
Post #1


*********
Group: Металариец
Posts: 971
Releases: 186
From: Подмосковье
On Forums: 8 years 11 months
Thanks: 2654 time(s)
Russian Federation


(IMG:http://metalarea.org/images/audiocovers/2018_Jun/acov_tid307394_thumb.jpg)

*Artist: Banco Del Mutuo Soccorso
*Album: Io Sono Nato Libero
*Year: 1973
*Genre: Progressive Rock
*Country: Italy (IMG:http://metalarea.org/forum/style_images/flags/Italy.png)
*Format: mp3@CBR320kbps
*Size: 92MB

Tracklist:
1. Canto Nomade Per Un Prigioniero Politico 15:46
2. Non Mi Rompete 5:09
3. La Città Sottile 7:13
4. Dopo... Niente È Più Lo Stesso 9:55
5. Traccia II 2:39
******************************
Total playing time: 40:42

(IMG:http://metalarea.org/images/youtube.png)

Extended info
Line-up / Musicians
- Francesco Di Giacomo / lead vocals
- Marcello Todaro / electric & acoustic guitars
- Gianni Nocenzi / electric & acoustic pianos
- Vittorio Nocenzi / organ, spinet, synths
- Renato D'Angelo / bass, acoustic guitar
- Pier Luigi Calderoni / drums, percussion
With:
- Rodolfo Maltese / acoustic & electric guitars
- Silvana Aliotta / percussion
- Bruno Perosa / percussion


Technical info
(IMG:http://metalarea.org/images/spectrogram/2018_Jun/26664714b7f643e3f1a83fa1bed505d8.png)
Input File: 02 Non mi rompete .mp3
Channels : 2
Sample Rate : 44100
Precision : 16-bit
Duration : 00:05:04.40 = 13423952 samples = 22829.9 CDDA sectors
File Size : 12.2M
Bit Rate : 320k
Sample Encoding: MPEG audio (layer I, II or III)
Comments :
Title=Non mi rompete
Artist=Banco Del Mutuo Soccorso
Album=Io Sono Nato Libero
Tracknumber=2/5
Genre=Prog-Rock



Register


Go to the top of the page
  Insert nick Quick quote
+Quote Post

Reply to this topicStart new topic
2 User(s) are reading this topic (2 Guests and 0 Anonymous Users)
0 Members:

 



- Lo-Fi Version Support form
Copyrights and abuse reports form
Time is now: 20th July 2018 - 11:42:35